  0
SECTION
  2
HEADER
  9
$ACADVER
  1
AC1024
  9
$ACADMAINTVER
 70
   226
  9
$DWGCODEPAGE
  3
ANSI_1252
  9
$LASTSAVEDBY
  1
raphaelmanzolillo
  9
$INSBASE
 10
0.0
 20
0.0
 30
0.0
  9
$EXTMIN
 10
87461.1620454435
 20
-59629.29957655994
 30
0.0
  9
$EXTMAX
 10
88172.82957487435
 20
-59137.58623258024
 30
2999.738826889333
  9
$LIMMIN
 10
0.0
 20
0.0
  9
$LIMMAX
 10
12.0
 20
9.0
  9
$ORTHOMODE
 70
     0
  9
$REGENMODE
 70
     1
  9
$FILLMODE
 70
     1
  9
$QTEXTMODE
 70
     0
  9
$MIRRTEXT
 70
     0
  9
$LTSCALE
 40
1.0
  9
$ATTMODE
 70
     1
  9
$TEXTSIZE
 40
0.2
  9
$TRACEWID
 40
0.05
  9
$TEXTSTYLE
  7
Standard
  9
$CLAYER
  8
标注
  9
$CELTYPE
  6
ByLayer
  9
$CECOLOR
 62
   256
  9
$CELTSCALE
 40
5.0
  9
$DISPSILH
 70
     0
  9
$DIMSCALE
 40
1.0
  9
$DIMASZ
 40
10.0
  9
$DIMEXO
 40
15.0
  9
$DIMDLI
 40
0.38
  9
$DIMRND
 40
0.0
  9
$DIMDLE
 40
0.0
  9
$DIMEXE
 40
5.0
  9
$DIMTP
 40
0.0
  9
$DIMTM
 40
0.0
  9
$DIMTXT
 40
10.0
  9
$DIMCEN
 40
0.09
  9
$DIMTSZ
 40
0.0
  9
$DIMTOL
 70
     0
  9
$DIMLIM
 70
     0
  9
$DIMTIH
 70
     0
  9
$DIMTOH
 70
     0
  9
$DIMSE1
 70
     0
  9
$DIMSE2
 70
     0
  9
$DIMTAD
 70
     0
  9
$DIMZIN
 70
     8
  9
$DIMBLK
  1

  9
$DIMASO
 70
     1
  9
$DIMSHO
 70
     1
  9
$DIMPOST
  1

  9
$DIMAPOST
  1
"
  9
$DIMALT
 70
     0
  9
$DIMALTD
 70
     3
  9
$DIMALTF
 40
0.03937
  9
$DIMLFAC
 40
1.0
  9
$DIMTOFL
 70
     1
  9
$DIMTVP
 40
0.0
  9
$DIMTIX
 70
     0
  9
$DIMSOXD
 70
     0
  9
$DIMSAH
 70
     0
  9
$DIMBLK1
  1

  9
$DIMBLK2
  1

  9
$DIMSTYLE
  2
副本Standard
  9
$DIMCLRD
 70
   256
  9
$DIMCLRE
 70
   256
  9
$DIMCLRT
 70
   256
  9
$DIMTFAC
 40
1.0
  9
$DIMGAP
 40
4.0
  9
$DIMJUST
 70
     0
  9
$DIMSD1
 70
     0
  9
$DIMSD2
 70
     0
  9
$DIMTOLJ
 70
     1
  9
$DIMTZIN
 70
     0
  9
$DIMALTZ
 70
     0
  9
$DIMALTTZ
 70
     0
  9
$DIMUPT
 70
     0
  9
$DIMDEC
 70
     1
  9
$DIMTDEC
 70
     1
  9
$DIMALTU
 70
     7
  9
$DIMALTTD
 70
     3
  9
$DIMTXSTY
  7
Standard
  9
$DIMAUNIT
 70
     0
  9
$DIMADEC
 70
     1
  9
$DIMALTRND
 40
0.0
  9
$DIMAZIN
 70
     2
  9
$DIMDSEP
 70
    44
  9
$DIMATFIT
 70
     3
  9
$DIMFRAC
 70
     0
  9
$DIMLDRBLK
  1

  9
$DIMLUNIT
 70
     2
  9
$DIMLWD
 70
    -2
  9
$DIMLWE
 70
    -2
  9
$DIMTMOVE
 70
     0
  9
$DIMFXL
 40
8.0
  9
$DIMFXLON
 70
     0
  9
$DIMJOGANG
 40
0.7853981633974483
  9
$DIMTFILL
 70
     0
  9
$DIMTFILLCLR
 70
     0
  9
$DIMARCSYM
 70
     0
  9
$DIMLTYPE
  6

  9
$DIMLTEX1
  6

  9
$DIMLTEX2
  6

  9
$DIMTXTDIRECTION
 70
     0
  9
$LUNITS
 70
     2
  9
$LUPREC
 70
     4
  9
$SKETCHINC
 40
0.1
  9
$FILLETRAD
 40
0.0
  9
$AUNITS
 70
     0
  9
$AUPREC
 70
     0
  9
$MENU
  1
.
  9
$ELEVATION
 40
0.0
  9
$PELEVATION
 40
0.0
  9
$THICKNESS
 40
0.0
  9
$LIMCHECK
 70
     0
  9
$CHAMFERA
 40
0.0
  9
$CHAMFERB
 40
0.0
  9
$CHAMFERC
 40
0.0
  9
$CHAMFERD
 40
0.0
  9
$SKPOLY
 70
     0
  9
$TDCREATE
 40
2454354.718796297
  9
$TDUCREATE
 40
2454355.010468380
  9
$TDUPDATE
 40
2459598.392754630
  9
$TDUUPDATE
 40
2459598.726087963
  9
$TDINDWG
 40
6.2093776505
  9
$TDUSRTIMER
 40
6.2093776505
  9
$USRTIMER
 70
     1
  9
$ANGBASE
 50
0.0
  9
$ANGDIR
 70
     0
  9
$PDMODE
 70
     0
  9
$PDSIZE
 40
0.0
  9
$PLINEWID
 40
0.0
  9
$SPLFRAME
 70
     0
  9
$SPLINETYPE
 70
     6
  9
$SPLINESEGS
 70
     8
  9
$HANDSEED
  5
A3CC7
  9
$SURFTAB1
 70
     6
  9
$SURFTAB2
 70
     6
  9
$SURFTYPE
 70
     6
  9
$SURFU
 70
     6
  9
$SURFV
 70
     6
  9
$UCSBASE
  2

  9
$UCSNAME
  2

  9
$UCSORG
 10
0.0
 20
0.0
 30
0.0
  9
$UCSXDIR
 10
1.0
 20
0.0
 30
0.0
  9
$UCSYDIR
 10
0.0
 20
1.0
 30
0.0
  9
$UCSORTHOREF
  2

  9
$UCSORTHOVIEW
 70
     0
  9
$UCSORGTOP
 10
0.0
 20
0.0
 30
0.0
  9
$UCSORGBOTTOM
 10
0.0
 20
0.0
 30
0.0
  9
$UCSORGLEFT
 10
0.0
 20
0.0
 30
0.0
  9
$UCSORGRIGHT
 10
0.0
 20
0.0
 30
0.0
  9
$UCSORGFRONT
 10
0.0
 20
0.0
 30
0.0
  9
$UCSORGBACK
 10
0.0
 20
0.0
 30
0.0
  9
$PUCSBASE
  2

  9
$PUCSNAME
  2

  9
$PUCSORG
 10
0.0
 20
0.0
 30
0.0
  9
$PUCSXDIR
 10
1.0
 20
0.0
 30
0.0
  9
$PUCSYDIR
 10
0.0
 20
1.0
 30
0.0
  9
$PUCSORTHOREF
  2

  9
$PUCSORTHOVIEW
 70
     0
  9
$PUCSORGTOP
 10
0.0
 20
0.0
 30
0.0
  9
$PUCSORGBOTTOM
 10
0.0
 20
0.0
 30
0.0
  9
$PUCSORGLEFT
 10
0.0
 20
0.0
 30
0.0
  9
$PUCSORGRIGHT
 10
0.0
 20
0.0
 30
0.0
  9
$PUCSORGFRONT
 10
0.0
 20
0.0
 30
0.0
  9
$PUCSORGBACK
 10
0.0
 20
0.0
 30
0.0
  9
$USERI1
 70
     0
  9
$USERI2
 70
     0
  9
$USERI3
 70
     0
  9
$USERI4
 70
     0
  9
$USERI5
 70
     0
  9
$USERR1
 40
0.0
  9
$USERR2
 40
0.0
  9
$USERR3
 40
0.0
  9
$USERR4
 40
0.0
  9
$USERR5
 40
2.5
  9
$WORLDVIEW
 70
     1
  9
$SHADEDGE
 70
     3
  9
$SHADEDIF
 70
    70
  9
$TILEMODE
 70
     1
  9
$MAXACTVP
 70
    64
  9
$PINSBASE
 10
0.0
 20
0.0
 30
0.0
  9
$PLIMCHECK
 70
     0
  9
$PEXTMIN
 10
0.0
 20
0.0
 30
0.0
  9
$PEXTMAX
 10
0.0
 20
0.0
 30
0.0
  9
$PLIMMIN
 10
0.0
 20
0.0
  9
$PLIMMAX
 10
12.0
 20
9.0
  9
$UNITMODE
 70
     0
  9
$VISRETAIN
 70
     1
  9
$PLINEGEN
 70
     0
  9
$PSLTSCALE
 70
     1
  9
$TREEDEPTH
 70
  3020
  9
$CMLSTYLE
  2
Standard
  9
$CMLJUST
 70
     0
  9
$CMLSCALE
 40
1.0
  9
$PROXYGRAPHICS
 70
     1
  9
$MEASUREMENT
 70
     0
  9
$CELWEIGHT
370
    -1
  9
$ENDCAPS
280
     0
  9
$JOINSTYLE
280
     0
  9
$LWDISPLAY
290
     1
  9
$INSUNITS
 70
     1
  9
$HYPERLINKBASE
  1

  9
$STYLESHEET
  1
MONOCHROME.CTB
  9
$XEDIT
290
     1
  9
$CEPSNTYPE
380
     0
  9
$PSTYLEMODE
290
     1
  9
$FINGERPRINTGUID
  2
{35BD88C0-9548-11D2-9A29-0060089B3A3F}
  9
$VERSIONGUID
  2
{3FAE8435-4281-9648-BAB6-D731E8B5835D}
  9
$EXTNAMES
290
     1
  9
$PSVPSCALE
 40
0.0
  9
$OLESTARTUP
290
     0
  9
$SORTENTS
280
   127
  9
$INDEXCTL
280
     0
  9
$HIDETEXT
280
     1
  9
$XCLIPFRAME
280
     2
  9
$HALOGAP
280
     0
  9
$OBSCOLOR
 70
   257
  9
$OBSLTYPE
280
     0
  9
$INTERSECTIONDISPLAY
280
     0
  9
$INTERSECTIONCOLOR
 70
   257
  9
$DIMASSOC
280
     2
  9
$PROJECTNAME
  1

  9
$CAMERADISPLAY
290
     0
  9
$LENSLENGTH
 40
50.0
  9
$CAMERAHEIGHT
 40
0.0
  9
$STEPSPERSEC
 40
2.0
  9
$STEPSIZE
 40
6.0
  9
$3DDWFPREC
 40
2.0
  9
$PSOLWIDTH
 40
0.25
  9
$PSOLHEIGHT
 40
4.0
  9
$LOFTANG1
 40
1.570796326794896
  9
$LOFTANG2
 40
1.570796326794896
  9
$LOFTMAG1
 40
0.0
  9
$LOFTMAG2
 40
0.0
  9
$LOFTPARAM
 70
     7
  9
$LOFTNORMALS
280
     1
  9
$LATITUDE
 40
37.795
  9
$LONGITUDE
 40
-122.394
  9
$NORTHDIRECTION
 40
0.0
  9
$TIMEZONE
 70
 -8000
  9
$LIGHTGLYPHDISPLAY
280
     1
  9
$TILEMODELIGHTSYNCH
280
     1
  9
$CMATERIAL
347
927BA
  9
$SOLIDHIST
280
     0
  9
$SHOWHIST
280
     1
  9
$DWFFRAME
280
     2
  9
$DGNFRAME
280
     0
  9
$REALWORLDSCALE
290
     1
  9
$INTERFERECOLOR
 62
     1
  9
$INTERFEREOBJVS
345
927DC
  9
$INTERFEREVPVS
346
A3AE9
  9
$CSHADOW
280
     0
  9
$SHADOWPLANELOCATION
 40
0.0
  0
ENDSEC
  0
SECTION
  2
CLASSES
  0
CLASS
  1
ACDBDICTIONARYWDFLT
  2
AcDbDictionaryWithDefault
  3
ObjectDBX Classes
 90
        0
 91
        1
280
     0
281
     0
  0
CLASS
  1
DICTIONARYVAR
  2
AcDbDictionaryVar
  3
ObjectDBX Classes
 90
        0
 91
       13
280
     0
281
     0
  0
CLASS
  1
SORTENTSTABLE
  2
AcDbSortentsTable
  3
ObjectDBX Classes
 90
        0
 91
        3
280
     0
281
     0
  0
CLASS
  1
DIMASSOC
  2
AcDbDimAssoc
  3
"AcDbDimAssoc|Product Desc:     AcDim ARX App For Dimension|Company:          Autodesk, Inc.|WEB Address:      www.autodesk.com"
 90
        0
 91
        0
280
     0
281
     0
  0
CLASS
  1
TABLESTYLE
  2
AcDbTableStyle
  3
ObjectDBX Classes
 90
     4095
 91
        1
280
     0
281
     0
  0
CLASS
  1
MATERIAL
  2
AcDbMaterial
  3
ObjectDBX Classes
 90
     1153
 91
        3
280
     0
281
     0
  0
CLASS
  1
VISUALSTYLE
  2
AcDbVisualStyle
  3
ObjectDBX Classes
 90
     4095
 91
       26
280
     0
281
     0
  0
CLASS
  1
SCALE
  2
AcDbScale
  3
ObjectDBX Classes
 90
     1153
 91
       33
280
     0
281
     0
  0
CLASS
  1
MLEADERSTYLE
  2
AcDbMLeaderStyle
  3
ACDB_MLEADERSTYLE_CLASS
 90
     4095
 91
        1
280
     0
281
     0
  0
CLASS
  1
EXACXREFPANELOBJECT
  2
ExAcXREFPanelObject
  3
EXAC_ESW
 90
     1025
 91
        0
280
     0
281
     0
  0
CLASS
  1
NPOCOLLECTION
  2
AcDbImpNonPersistentObjectsCollection
  3
ObjectDBX Classes
 90
     1153
 91
        0
280
     0
281
     0
  0
CLASS
  1
VLO-VL
  2
vlo_VL
  3
VL|AutoLISP based application
 90
      129
 91
        1
280
     0
281
     0
  0
CLASS
  1
CELLSTYLEMAP
  2
AcDbCellStyleMap
  3
ObjectDBX Classes
 90
     1152
 91
        2
280
     0
281
     0
  0
CLASS
  1
ACDBSECTIONVIEWSTYLE
  2
AcDbSectionViewStyle
  3
ObjectDBX Classes
 90
     1025
 91
        2
280
     0
281
     0
  0
CLASS
  1
ACDBDETAILVIEWSTYLE
  2
AcDbDetailViewStyle
  3
ObjectDBX Classes
 90
     1025
 91
        2
280
     0
281
     0
  0
ENDSEC
  0
SECTION
  2
TABLES
  0
TABLE
  2
VPORT
  5
8
102
{ACAD_XDICTIONARY
360
9311C
102
}
330
0
100
AcDbSymbolTable
 70
     1
  0
VPORT
  5
927B8
330
8
100
AcDbSymbolTableRecord
100
AcDbViewportTableRecord
  2
*Active
 70
     0
 10
0.0
 20
0.0
 11
1.0
 21
1.0
 12
87763.36337010596
 22
-59401.34924857865
 13
0.0
 23
0.0
 14
0.5
 24
0.5
 15
0.5
 25
0.5
 16
0.0
 26
0.0
 36
1.0
 17
0.0
 27
0.0
 37
0.0
 40
658.6002228165526
 41
1.7162471395881
 42
50.0
 43
0.0
 44
0.0
 50
0.0
 51
0.0
 71
     0
 72
  1000
 73
     1
 74
     3
 75
     0
 76
     0
 77
     0
 78
     0
281
     0
 65
     1
110
0.0
120
0.0
130
0.0
111
1.0
121
0.0
131
0.0
112
0.0
122
1.0
132
0.0
 79
     0
146
0.0
348
927D8
 60
     3
 61
     5
292
     1
282
     1
141
0.0
142
0.0
 63
   250
421
  3355443
1001
ACAD_NAV_VCDISPLAY
1070
     3
  0
ENDTAB
  0
TABLE
  2
LTYPE
  5
5
330
0
100
AcDbSymbolTable
 70
     2
  0
LTYPE
  5
14
330
5
100
AcDbSymbolTableRecord
100
AcDbLinetypeTableRecord
  2
ByBlock
 70
     0
  3

 72
    65
 73
     0
 40
0.0
  0
LTYPE
  5
15
330
5
100
AcDbSymbolTableRecord
100
AcDbLinetypeTableRecord
  2
ByLayer
 70
     0
  3

 72
    65
 73
     0
 40
0.0
  0
LTYPE
  5
16
330
5
100
AcDbSymbolTableRecord
100
AcDbLinetypeTableRecord
  2
Continuous
 70
     0
  3
Solid line
 72
    65
 73
     0
 40
0.0
  0
ENDTAB
  0
TABLE
  2
LAYER
  5
2
102
{ACAD_XDICTIONARY
360
AB
102
}
330
0
100
AcDbSymbolTable
 70
     3
  0
LAYER
  5
10
102
{ACAD_XDICTIONARY
360
92823
102
}
330
2
100
AcDbSymbolTableRecord
100
AcDbLayerTableRecord
  2
0
 70
     0
 62
     7
  6
Continuous
370
    25
390
F
347
927CA
  0
LAYER
  5
582
330
2
100
AcDbSymbolTableRecord
100
AcDbLayerTableRecord
  2
Defpoints
 70
     0
 62
     7
  6
Continuous
290
     0
370
    -3
390
F
347
927CA
  0
LAYER
  5
16DF9
102
{ACAD_XDICTIONARY
360
9282F
102
}
330
2
100
AcDbSymbolTableRecord
100
AcDbLayerTableRecord
  2
标注
 70
     0
 62
    80
  6
Continuous
370
     5
390
F
347
927CA
1001
AcAecLayerStandard
1000

1000

  0
ENDTAB
  0
TABLE
  2
STYLE
  5
3
330
0
100
AcDbSymbolTable
 70
     1
  0
STYLE
  5
11
330
3
100
AcDbSymbolTableRecord
100
AcDbTextStyleTableRecord
  2
Standard
 70
     0
 40
0.0
 41
1.0
 50
0.0
 71
     0
 42
0.2
  3
SimSun.ttf
  4

1001
ACAD
1000
SimSun
1071
    34306
  0
ENDTAB
  0
TABLE
  2
VIEW
  5
6
330
0
100
AcDbSymbolTable
 70
     1
  0
ENDTAB
  0
TABLE
  2
UCS
  5
7
330
0
100
AcDbSymbolTable
 70
     0
  0
ENDTAB
  0
TABLE
  2
APPID
  5
9
330
0
100
AcDbSymbolTable
 70
    21
  0
APPID
  5
12
330
9
100
AcDbSymbolTableRecord
100
AcDbRegAppTableRecord
  2
ACAD
 70
     0
  0
APPID
  5
A5
330
9
100
AcDbSymbolTableRecord
100
AcDbRegAppTableRecord
  2
AcAecLayerStandard
 70
     0
  0
APPID
  5
A6
330
9
100
AcDbSymbolTableRecord
100
AcDbRegAppTableRecord
  2
ACAD_DSTYLE_DIMEXT_LENGTH
 70
     0
  0
APPID
  5
A7
330
9
100
AcDbSymbolTableRecord
100
AcDbRegAppTableRecord
  2
ACAD_DSTYLE_DIMEXT_ENABLED
 70
     0
  0
APPID
  5
A8
330
9
100
AcDbSymbolTableRecord
100
AcDbRegAppTableRecord
  2
ACAD_DSTYLE_DIMJOGGED_JOGANGLE_SYMBOL
 70
     0
  0
APPID
  5
A9
330
9
100
AcDbSymbolTableRecord
100
AcDbRegAppTableRecord
  2
ACAD_DSTYLE_DIMARC_LENGTH_SYMBOL
 70
     0
  0
APPID
  5
AA
330
9
100
AcDbSymbolTableRecord
100
AcDbRegAppTableRecord
  2
ACAD_PSEXT
 70
     0
  0
APPID
  5
173
330
9
100
AcDbSymbolTableRecord
100
AcDbRegAppTableRecord
  2
DCO15
 70
     0
  0
APPID
  5
11D5
330
9
100
AcDbSymbolTableRecord
100
AcDbRegAppTableRecord
  2
ACAD_EXEMPT_FROM_CAD_STANDARDS
 70
     0
  0
APPID
  5
B456
330
9
100
AcDbSymbolTableRecord
100
AcDbRegAppTableRecord
  2
ACAD_DSTYLE_DIMTEXT_FILL
 70
     0
  0
APPID
  5
B459
330
9
100
AcDbSymbolTableRecord
100
AcDbRegAppTableRecord
  2
ACAD_DSTYLE_DIM_LINETYPE
 70
     0
  0
APPID
  5
B45A
330
9
100
AcDbSymbolTableRecord
100
AcDbRegAppTableRecord
  2
ACAD_DSTYLE_DIM_EXT1_LINETYPE
 70
     0
  0
APPID
  5
B45B
330
9
100
AcDbSymbolTableRecord
100
AcDbRegAppTableRecord
  2
ACAD_DSTYLE_DIM_EXT2_LINETYPE
 70
     0
  0
APPID
  5
931BE
330
9
100
AcDbSymbolTableRecord
100
AcDbRegAppTableRecord
  2
ACAD_MLEADERVER
 70
     0
  0
APPID
  5
9345D
330
9
100
AcDbSymbolTableRecord
100
AcDbRegAppTableRecord
  2
ACAD_DSTYLE_DIMJAG
 70
     0
  0
APPID
  5
9345E
330
9
100
AcDbSymbolTableRecord
100
AcDbRegAppTableRecord
  2
ACAD_DSTYLE_DIMTALN
 70
     0
  0
APPID
  5
935AB
330
9
100
AcDbSymbolTableRecord
100
AcDbRegAppTableRecord
  2
ACAD_DSTYLE_DIMRADIAL_EXTENSION
 70
     0
  0
APPID
  5
93893
330
9
100
AcDbSymbolTableRecord
100
AcDbRegAppTableRecord
  2
ACAD_DSTYLE_DIMBREAK
 70
     0
  0
APPID
  5
A3B05
330
9
100
AcDbSymbolTableRecord
100
AcDbRegAppTableRecord
  2
ACAD_NAV_VCDISPLAY
 70
     0
  0
APPID
  5
A3BFF
330
9
100
AcDbSymbolTableRecord
100
AcDbRegAppTableRecord
  2
AcadStringInfo
 70
     0
  0
APPID
  5
A3C00
330
9
100
AcDbSymbolTableRecord
100
AcDbRegAppTableRecord
  2
AcDbDynamicBlockGUID
 70
     0
  0
ENDTAB
  0
TABLE
  2
DIMSTYLE
  5
A
330
0
100
AcDbSymbolTable
 70
     7
100
AcDbDimStyleTable
 71
     2
340
3BDB5
340
27
  0
DIMSTYLE
105
27
330
A
100
AcDbSymbolTableRecord
100
AcDbDimStyleTableRecord
  2
Standard
 70
     0
 41
20.0
 42
25.0
 44
8.0
 49
8.0
 73
     0
 74
     0
 78
     8
 79
     2
140
20.0
147
5.0
172
     1
176
     3
177
     3
178
     3
179
     1
271
     1
272
     1
278
    44
340
11
1001
ACAD_DSTYLE_DIMJOGGED_JOGANGLE_SYMBOL
1070
   384
1040
0.7853981633974483
  0
DIMSTYLE
105
3BDB5
330
A
100
AcDbSymbolTableRecord
100
AcDbDimStyleTableRecord
  2
副本Standard
 70
     0
  4
"
 41
10.0
 42
15.0
 44
5.0
 73
     0
 74
     0
 78
     8
 79
     2
140
10.0
143
0.03937
147
4.0
171
     3
172
     1
176
   256
177
   256
178
   256
179
     1
271
     1
272
     1
273
     7
274
     3
278
    44
340
11
1001
ACAD_DSTYLE_DIMJAG
1070
   388
1040
1.5
1001
ACAD_DSTYLE_DIMTALN
1070
   392
1070
     0
  0
DIMSTYLE
105
957F1
102
{ACAD_REACTORS
330
A3A0D
330
A3A0C
102
}
330
A
100
AcDbSymbolTableRecord
100
AcDbDimStyleTableRecord
  2
副本Standard$0
 70
     0
  4
"
 41
16.0
 42
15.0
 44
7.0
 73
     0
 74
     0
 78
     8
 79
     2
140
20.0
143
0.03937
147
4.0
171
     3
172
     1
176
   256
177
   256
178
   256
179
     1
271
     1
272
     1
273
     7
274
     3
278
    44
340
11
1001
ACAD_DSTYLE_DIMBREAK
1070
   391
1040
0.125
1001
ACAD_DSTYLE_DIMJAG
1070
   388
1040
1.5
1001
ACAD_DSTYLE_DIMTALN
1070
   392
1070
     0
  0
DIMSTYLE
105
A3BFB
330
A
100
AcDbSymbolTableRecord
100
AcDbDimStyleTableRecord
  2
XIAO
 70
     0
 41
3.5
 42
3.0
 43
1.0
 44
1.0
 73
     0
 74
     0
 78
     8
140
4.0
141
1.5
143
0.03937007874016
147
1.0
171
     3
172
     1
179
     1
271
     1
272
     1
274
     3
278
    44
283
     0
284
     8
340
11
  0
DIMSTYLE
105
A3BFC
330
A
100
AcDbSymbolTableRecord
100
AcDbDimStyleTableRecord
  2
副本 (2)Standard
 70
     0
  3
mm
  4
"
 41
16.0
 42
22.0
 44
8.0
 73
     0
 74
     0
 78
     8
 79
     2
140
16.0
143
0.03937
147
5.0
170
     1
171
     0
172
     1
176
     3
177
     3
178
     3
179
     1
271
     0
272
     0
274
     0
278
    44
340
11
1001
ACAD_DSTYLE_DIMJAG
1070
   388
1040
1.5
1001
ACAD_DSTYLE_DIMTALN
1070
   392
1070
     0
1001
AcadStringInfo
1000
MIFCodePage
1070
     5
  0
DIMSTYLE
105
A3BFD
330
A
100
AcDbSymbolTableRecord
100
AcDbDimStyleTableRecord
  2
中10+
 70
     0
  3
mm
  4
"
 41
12.0
 42
10.0
 43
1.0
 44
2.0
 73
     0
 74
     0
 78
     8
140
12.0
141
1.5
143
0.03937007874016
147
4.0
170
     1
171
     3
172
     1
179
     1
271
     1
272
     1
273
     7
274
     3
278
    44
283
     0
284
     8
340
11
1001
AcadStringInfo
1000
MIFCodePage
1070
     5
  0
DIMSTYLE
105
A3BFE
330
A
100
AcDbSymbolTableRecord
100
AcDbDimStyleTableRecord
  2
毫米英寸
 70
     0
  3
mm
  4
"
 41
15.0
 42
8.0
 43
3.75
 44
8.0
 49
2.0
 50
90.0
 73
     0
 74
     0
 78
     8
 90
        1
140
20.0
141
0.0
143
0.03937007874
147
2.0
170
     1
171
     3
172
     1
176
     3
177
     3
178
     3
271
     0
272
     0
273
     7
274
     3
276
     2
278
    44
283
     0
284
     8
340
11
345
14
346
14
347
14
371
    15
372
    15
1001
ACAD_DSTYLE_DIMBREAK
1070
   391
1040
3.75
1001
ACAD_DSTYLE_DIMJAG
1070
   388
1040
1.5
1001
ACAD_DSTYLE_DIMTALN
1070
   392
1070
     0
1001
ACAD_DSTYLE_DIMJOGGED_JOGANGLE_SYMBOL
1070
   384
1040
1.570796326794896
1001
AcadStringInfo
1000
MIFCodePage
1070
     5
  0
ENDTAB
  0
TABLE
  2
BLOCK_RECORD
  5
1
330
0
100
AcDbSymbolTable
 70
     6
  0
BLOCK_RECORD
  5
1F
102
{ACAD_XDICTIONARY
360
118B
102
}
330
1
100
AcDbSymbolTableRecord
100
AcDbBlockTableRecord
  2
*Model_Space
340
22
 70
     0
280
     1
281
     0
  0
BLOCK_RECORD
  5
73
330
1
100
AcDbSymbolTableRecord
100
AcDbBlockTableRecord
  2
*Paper_Space
340
74
 70
     0
280
     1
281
     0
  0
BLOCK_RECORD
  5
78
330
1
100
AcDbSymbolTableRecord
100
AcDbBlockTableRecord
  2
*Paper_Space0
340
79
 70
     0
280
     1
281
     0
  0
BLOCK_RECORD
  5
A3A16
330
1
100
AcDbSymbolTableRecord
100
AcDbBlockTableRecord
  2
*D1
340
0
 70
     0
280
     1
281
     0
  0
BLOCK_RECORD
  5
A3A23
330
1
100
AcDbSymbolTableRecord
100
AcDbBlockTableRecord
  2
*D2
340
0
 70
     0
280
     1
281
     0
  0
BLOCK_RECORD
  5
A3BE6
102
{ACAD_XDICTIONARY
360
A3BE7
102
}
330
1
100
AcDbSymbolTableRecord
100
AcDbBlockTableRecord
  2
1.1
340
0
102
{BLKREFS
331
A3C64
102
}
 70
     4
280
     1
281
     0
1001
AcDbDynamicBlockGUID
1000
{33B41307-7CAF-1E40-B89A-15D7E0E20E69}
  0
ENDTAB
  0
ENDSEC
  0
SECTION
  2
BLOCKS
  0
BLOCK
  5
20
330
1F
100
AcDbEntity
  8
0
100
AcDbBlockBegin
  2
*Model_Space
 70
     0
 10
0.0
 20
0.0
 30
0.0
  3
*Model_Space
  1

  0
ENDBLK
  5
21
330
1F
100
AcDbEntity
  8
0
100
AcDbBlockEnd
  0
BLOCK
  5
75
330
73
100
AcDbEntity
 67
     1
  8
0
100
AcDbBlockBegin
  2
*Paper_Space
 70
     0
 10
0.0
 20
0.0
 30
0.0
  3
*Paper_Space
  1

  0
ENDBLK
  5
76
330
73
100
AcDbEntity
 67
     1
  8
0
100
AcDbBlockEnd
  0
BLOCK
  5
7A
330
78
100
AcDbEntity
 67
     1
  8
0
100
AcDbBlockBegin
  2
*Paper_Space0
 70
     0
 10
0.0
 20
0.0
 30
0.0
  3
*Paper_Space0
  1

  0
ENDBLK
  5
7B
330
78
100
AcDbEntity
 67
     1
  8
0
100
AcDbBlockEnd
  0
BLOCK
  5
A3A17
330
A3A16
100
AcDbEntity
  8
0
 48
5.0
100
AcDbBlockBegin
  2
*D1
 70
     1
 10
0.0
 20
0.0
 30
0.0
  3
*D1
  1

  0
LINE
  5
A3A74
330
A3A16
100
AcDbEntity
  8
标注
440
 16777216
 48
5.0
370
    -2
100
AcDbLine
 10
88091.16204544354
 20
-59137.58623258027
 30
0.0
 11
88167.92481296955
 21
-59137.58623258027
 31
0.0
  0
LINE
  5
A3A75
330
A3A16
100
AcDbEntity
  8
标注
440
 16777216
 48
5.0
370
    -2
100
AcDbLine
 10
88091.1620454435
 20
-59543.98623258027
 30
0.0
 11
88167.92481296955
 21
-59543.98623258027
 31
0.0
  0
LINE
  5
A3A76
330
A3A16
100
AcDbEntity
  8
标注
440
 16777216
 48
5.0
370
    -2
100
AcDbLine
 10
88160.92481296955
 20
-59153.58623258027
 30
0.0
 11
88160.92481296955
 21
-59302.2306770247
 31
0.0
  0
LINE
  5
A3A77
330
A3A16
100
AcDbEntity
  8
标注
440
 16777216
 48
5.0
370
    -2
100
AcDbLine
 10
88160.92481296955
 20
-59527.98623258027
 30
0.0
 11
88160.92481296955
 21
-59379.34178813581
 31
0.0
  0
SOLID
  5
A3A78
330
A3A16
100
AcDbEntity
  8
标注
440
 16777216
 48
5.0
100
AcDbTrace
 10
88158.25814630288
 20
-59153.58623258027
 30
0.0
 11
88163.59147963623
 21
-59153.58623258027
 31
0.0
 12
88160.92481296955
 22
-59137.58623258027
 32
0.0
 13
88160.92481296955
 23
-59137.58623258027
 33
0.0
  0
SOLID
  5
A3A79
330
A3A16
100
AcDbEntity
  8
标注
440
 16777216
 48
5.0
100
AcDbTrace
 10
88158.25814630288
 20
-59527.98623258027
 30
0.0
 11
88163.59147963623
 21
-59527.98623258027
 31
0.0
 12
88160.92481296955
 22
-59543.98623258027
 32
0.0
 13
88160.92481296955
 23
-59543.98623258027
 33
0.0
  0
MTEXT
  5
A3A7A
330
A3A16
100
AcDbEntity
  8
标注
440
 16777216
 48
5.0
100
AcDbMText
 10
88160.92481296958
 20
-59340.78623258026
 30
0.0
 40
20.0
 41
0.0
 46
0.0
 71
     5
 72
     1
  1
\A1;406,4
 11
0.0000000000000001
 21
1.0
 31
0.0
 73
     1
 44
1.0
1001
ACAD
1000
MTEXTBEGIN
1070
    73
1070
     1
1070
    44
1040
1.0
1070
    74
1070
     0
1000
MTEXTEND
  0
POINT
  5
A3A7B
330
A3A16
100
AcDbEntity
  8
Defpoints
 62
     0
440
 16777216
 48
5.0
100
AcDbPoint
 10
88076.16204544354
 20
-59137.58623258027
 30
0.0
  0
POINT
  5
A3A7C
330
A3A16
100
AcDbEntity
  8
Defpoints
 62
     0
440
 16777216
 48
5.0
100
AcDbPoint
 10
88076.1620454435
 20
-59543.98623258027
 30
0.0
  0
POINT
  5
A3A7D
330
A3A16
100
AcDbEntity
  8
Defpoints
 62
     0
440
 16777216
 48
5.0
100
AcDbPoint
 10
88160.92481296955
 20
-59543.98623258027
 30
0.0
  0
ENDBLK
  5
A3A18
330
A3A16
100
AcDbEntity
  8
0
 48
5.0
100
AcDbBlockEnd
  0
BLOCK
  5
A3A24
330
A3A23
100
AcDbEntity
  8
0
 48
5.0
100
AcDbBlockBegin
  2
*D2
 70
     1
 10
0.0
 20
0.0
 30
0.0
  3
*D2
  1

  0
LINE
  5
A3A6A
330
A3A23
100
AcDbEntity
  8
标注
440
 16777216
 48
5.0
370
    -2
100
AcDbLine
 10
87461.1620454435
 20
-59543.98623258025
 30
0.0
 11
87461.1620454435
 21
-59626.29957655992
 31
0.0
  0
LINE
  5
A3A6B
330
A3A23
100
AcDbEntity
  8
标注
440
 16777216
 48
5.0
370
    -2
100
AcDbLine
 10
88096.16204544351
 20
-59543.98623258027
 30
0.0
 11
88096.16204544351
 21
-59626.29957655992
 31
0.0
  0
LINE
  5
A3A6C
330
A3A23
100
AcDbEntity
  8
标注
440
 16777216
 48
5.0
370
    -2
100
AcDbLine
 10
87477.16204544349
 20
-59619.29957655992
 30
0.0
 11
87754.88426766573
 21
-59619.29957655992
 31
0.0
  0
LINE
  5
A3A6D
330
A3A23
100
AcDbEntity
  8
标注
440
 16777216
 48
5.0
370
    -2
100
AcDbLine
 10
88080.16204544351
 20
-59619.29957655992
 30
0.0
 11
87802.43982322128
 21
-59619.29957655992
 31
0.0
  0
SOLID
  5
A3A6E
330
A3A23
100
AcDbEntity
  8
标注
440
 16777216
 48
5.0
100
AcDbTrace
 10
87477.16204544349
 20
-59616.63290989326
 30
0.0
 11
87477.16204544349
 21
-59621.96624322658
 31
0.0
 12
87461.1620454435
 22
-59619.29957655992
 32
0.0
 13
87461.1620454435
 23
-59619.29957655992
 33
0.0
  0
SOLID
  5
A3A6F
330
A3A23
100
AcDbEntity
  8
标注
440
 16777216
 48
5.0
100
AcDbTrace
 10
88080.16204544351
 20
-59616.63290989326
 30
0.0
 11
88080.16204544351
 21
-59621.96624322658
 31
0.0
 12
88096.16204544351
 22
-59619.29957655992
 32
0.0
 13
88096.16204544351
 23
-59619.29957655992
 33
0.0
  0
MTEXT
  5
A3A70
330
A3A23
100
AcDbEntity
  8
标注
440
 16777216
 48
5.0
100
AcDbMText
 10
87778.6620454435
 20
-59619.29957655992
 30
0.0
 40
20.0
 41
0.0
 46
0.0
 71
     5
 72
     1
  1
\A1;635
 73
     1
 44
1.0
1001
ACAD
1000
MTEXTBEGIN
1070
    73
1070
     1
1070
    44
1040
1.0
1070
    74
1070
     0
1000
MTEXTEND
  0
POINT
  5
A3A71
330
A3A23
100
AcDbEntity
  8
Defpoints
 62
     0
440
 16777216
 48
5.0
100
AcDbPoint
 10
87461.1620454435
 20
-59528.98623258026
 30
0.0
  0
POINT
  5
A3A72
330
A3A23
100
AcDbEntity
  8
Defpoints
 62
     0
440
 16777216
 48
5.0
100
AcDbPoint
 10
88096.16204544351
 20
-59528.98623258027
 30
0.0
  0
POINT
  5
A3A73
330
A3A23
100
AcDbEntity
  8
Defpoints
 62
     0
440
 16777216
 48
5.0
100
AcDbPoint
 10
88096.16204544351
 20
-59619.29957655992
 30
0.0
  0
ENDBLK
  5
A3A25
330
A3A23
100
AcDbEntity
  8
0
 48
5.0
100
AcDbBlockEnd
  0
BLOCK
  5
A3BE8
330
A3BE6
100
AcDbEntity
  8
0
100
AcDbBlockBegin
  2
1.1
 70
     0
 10
0.0
 20
0.0
 30
0.0
  3
1.1
  1

  0
SPLINE
  5
A3BE9
330
A3BE6
100
AcDbEntity
  8
0
370
     0
100
AcDbSpline
210
0.0
220
0.0
230
1.0
 70
     9
 71
     3
 72
    17
 73
    13
 74
     0
 42
0.000000001
 43
0.0000000001
 40
0.0
 40
0.0
 40
0.0
 40
0.0
 40
1.0
 40
1.0
 40
1.0
 40
2.0
 40
2.0
 40
2.0
 40
3.0
 40
3.0
 40
3.0
 40
4.0
 40
4.0
 40
4.0
 40
4.0
 10
690.8192287182941
 20
581.4140123371299
 30
0.0
 10
672.2082467840622
 20
581.4140123371299
 30
0.0
 10
657.0670164663937
 20
566.2118269859761
 30
0.0
 10
657.0670164663937
 20
547.5254950748268
 30
0.0
 10
657.0670164663937
 20
528.8400108316529
 30
0.0
 10
672.2082467840622
 20
513.637363116149
 30
0.0
 10
690.8192287182941
 20
513.637363116149
 30
0.0
 10
709.4299948824962
 20
513.637363116149
 30
0.0
 10
724.5707011872347
 20
528.8400108316529
 30
0.0
 10
724.5707011872347
 20
547.5254950748268
 30
0.0
 10
724.5707011872347
 20
566.2118269859761
 30
0.0
 10
709.4299948824962
 20
581.4140123371299
 30
0.0
 10
690.8192287182941
 20
581.4140123371299
 30
0.0
  0
SPLINE
  5
A3BEA
330
A3BE6
100
AcDbEntity
  8
0
370
     0
100
AcDbSpline
210
0.0
220
0.0
230
1.0
 70
     9
 71
     3
 72
    32
 73
    28
 74
     0
 42
0.000000001
 43
0.0000000001
 40
0.0
 40
0.0
 40
0.0
 40
0.0
 40
1.0
 40
1.0
 40
1.0
 40
2.0
 40
2.0
 40
2.0
 40
3.0
 40
3.0
 40
3.0
 40
4.0
 40
4.0
 40
4.0
 40
5.0
 40
5.0
 40
5.0
 40
6.0
 40
6.0
 40
6.0
 40
7.0
 40
7.0
 40
7.0
 40
8.0
 40
8.0
 40
8.0
 40
9.0
 40
9.0
 40
9.0
 40
9.0
 10
691.855340990379
 20
515.7357728946773
 30
0.0
 10
691.855340990379
 20
515.7357728946773
 30
0.0
 10
691.855340990379
 20
521.8768499559478
 30
0.0
 10
691.855340990379
 20
521.8768499559478
 30
0.0
 10
705.4773961751489
 20
522.4253065480077
 30
0.0
 10
716.3921847930659
 20
533.7173998877313
 30
0.0
 10
716.3921847930659
 20
547.5254950748268
 30
0.0
 10
716.3921847930659
 20
561.6833072441749
 30
0.0
 10
704.9202933697429
 20
573.2013272174904
 30
0.0
 10
690.8192287182941
 20
573.2013272174904
 30
0.0
 10
690.2470682472205
 20
573.2013272174904
 30
0.0
 10
689.7832705676599
 20
572.7375295379295
 30
0.0
 10
689.7832705676599
 20
572.1652149454057
 30
0.0
 10
689.7832705676599
 20
572.1652149454057
 30
0.0
 10
689.7832705676599
 20
515.7357728946773
 30
0.0
 10
689.7832705676599
 20
515.7357728946773
 30
0.0
 10
672.7933380447932
 20
516.2881441715681
 30
0.0
 10
659.1392255984181
 20
530.330796793457
 30
0.0
 10
659.1392255984181
 20
547.5254950748268
 30
0.0
 10
659.1392255984181
 20
565.0691551433441
 30
0.0
 10
673.3509032145494
 20
579.3419419144107
 30
0.0
 10
690.8192287182941
 20
579.3419419144107
 30
0.0
 10
708.2873384520088
 20
579.3419419144107
 30
0.0
 10
722.4986461766607
 20
565.0691551433441
 30
0.0
 10
722.4986461766607
 20
547.5254950748268
 30
0.0
 10
722.4986461766607
 20
530.330796793457
 30
0.0
 10
708.8447495003154
 20
516.2881441715681
 30
0.0
 10
691.855340990379
 20
515.7357728946773
 30
0.0
  0
SPLINE
  5
A3BEB
330
A3BE6
100
AcDbEntity
  8
0
370
     0
100
AcDbSpline
210
0.0
220
0.0
230
1.0
 70
     9
 71
     3
 72
    14
 73
    10
 74
     0
 42
0.000000001
 43
0.0000000001
 40
0.0
 40
0.0
 40
0.0
 40
0.0
 40
1.0
 40
1.0
 40
1.0
 40
2.0
 40
2.0
 40
2.0
 40
3.0
 40
3.0
 40
3.0
 40
3.0
 10
691.855340990379
 20
523.9490590879722
 30
0.0
 10
691.855340990379
 20
523.9490590879722
 30
0.0
 10
691.855340990379
 20
571.1026246082068
 30
0.0
 10
691.855340990379
 20
571.1026246082068
 30
0.0
 10
704.3344315017621
 20
570.5558171156622
 30
0.0
 10
714.3201143703467
 20
560.1917506751203
 30
0.0
 10
714.3201143703467
 20
547.5254950748268
 30
0.0
 10
714.3201143703467
 20
534.8600717303634
 30
0.0
 10
704.3344315017621
 20
524.4957124590666
 30
0.0
 10
691.855340990379
 20
523.9490590879722
 30
0.0
  0
HATCH
  5
A3BEC
330
A3BE6
100
AcDbEntity
  8
0
100
AcDbHatch
 10
0.0
 20
0.0
 30
0.0
210
0.0
220
0.0
230
1.0
  2
SOLID
 70
     1
 71
     0
 91
        3
 92
        1
 93
        1
 72
     4
 94
        3
 73
     0
 74
     0
 95
       17
 96
       13
 40
0.0
 40
0.0
 40
0.0
 40
0.0
 40
1.0
 40
1.0
 40
1.0
 40
2.0
 40
2.0
 40
2.0
 40
3.0
 40
3.0
 40
3.0
 40
4.0
 40
4.0
 40
4.0
 40
4.0
 10
690.8192287182941
 20
581.4140123371299
 10
672.2082467840622
 20
581.4140123371299
 10
657.0670164663937
 20
566.2118269859761
 10
657.0670164663937
 20
547.5254950748268
 10
657.0670164663937
 20
528.8400108316529
 10
672.2082467840622
 20
513.637363116149
 10
690.8192287182941
 20
513.637363116149
 10
709.4299948824962
 20
513.637363116149
 10
724.5707011872347
 20
528.8400108316529
 10
724.5707011872347
 20
547.5254950748268
 10
724.5707011872347
 20
566.2118269859761
 10
709.4299948824962
 20
581.4140123371299
 10
690.8192287182941
 20
581.4140123371299
 97
        0
 97
        0
 92
        1
 93
        1
 72
     4
 94
        3
 73
     0
 74
     0
 95
       32
 96
       28
 40
0.0
 40
0.0
 40
0.0
 40
0.0
 40
1.0
 40
1.0
 40
1.0
 40
2.0
 40
2.0
 40
2.0
 40
3.0
 40
3.0
 40
3.0
 40
4.0
 40
4.0
 40
4.0
 40
5.0
 40
5.0
 40
5.0
 40
6.0
 40
6.0
 40
6.0
 40
7.0
 40
7.0
 40
7.0
 40
8.0
 40
8.0
 40
8.0
 40
9.0
 40
9.0
 40
9.0
 40
9.0
 10
691.855340990379
 20
515.7357728946773
 10
691.855340990379
 20
515.7357728946773
 10
691.855340990379
 20
521.8768499559478
 10
691.855340990379
 20
521.8768499559478
 10
705.4773961751489
 20
522.4253065480077
 10
716.3921847930659
 20
533.7173998877313
 10
716.3921847930659
 20
547.5254950748268
 10
716.3921847930659
 20
561.6833072441749
 10
704.9202933697429
 20
573.2013272174904
 10
690.8192287182941
 20
573.2013272174904
 10
690.2470682472205
 20
573.2013272174904
 10
689.7832705676599
 20
572.7375295379295
 10
689.7832705676599
 20
572.1652149454057
 10
689.7832705676599
 20
572.1652149454057
 10
689.7832705676599
 20
515.7357728946773
 10
689.7832705676599
 20
515.7357728946773
 10
672.7933380447932
 20
516.2881441715681
 10
659.1392255984181
 20
530.330796793457
 10
659.1392255984181
 20
547.5254950748268
 10
659.1392255984181
 20
565.0691551433441
 10
673.3509032145494
 20
579.3419419144107
 10
690.8192287182941
 20
579.3419419144107
 10
708.2873384520088
 20
579.3419419144107
 10
722.4986461766607
 20
565.0691551433441
 10
722.4986461766607
 20
547.5254950748268
 10
722.4986461766607
 20
530.330796793457
 10
708.8447495003154
 20
516.2881441715681
 10
691.855340990379
 20
515.7357728946773
 97
        0
 97
        0
 92
        1
 93
        1
 72
     4
 94
        3
 73
     0
 74
     0
 95
       14
 96
       10
 40
0.0
 40
0.0
 40
0.0
 40
0.0
 40
1.0
 40
1.0
 40
1.0
 40
2.0
 40
2.0
 40
2.0
 40
3.0
 40
3.0
 40
3.0
 40
3.0
 10
691.855340990379
 20
523.9490590879722
 10
691.855340990379
 20
523.9490590879722
 10
691.855340990379
 20
571.1026246082068
 10
691.855340990379
 20
571.1026246082068
 10
704.3344315017621
 20
570.5558171156622
 10
714.3201143703467
 20
560.1917506751203
 10
714.3201143703467
 20
547.5254950748268
 10
714.3201143703467
 20
534.8600717303634
 10
704.3344315017621
 20
524.4957124590666
 10
691.855340990379
 20
523.9490590879722
 97
        0
 97
        0
 75
     2
 76
     1
 98
        0
450
        0
451
        0
460
0.0
461
0.0
452
        1
462
0.0
453
        0
470

  0
SPLINE
  5
A3BED
330
A3BE6
100
AcDbEntity
  8
0
370
     0
100
AcDbSpline
210
0.0
220
0.0
230
1.0
 70
     9
 71
     3
 72
   101
 73
    97
 74
     0
 42
0.000000001
 43
0.0000000001
 40
0.0
 40
0.0
 40
0.0
 40
0.0
 40
1.0
 40
1.0
 40
1.0
 40
2.0
 40
2.0
 40
2.0
 40
3.0
 40
3.0
 40
3.0
 40
4.0
 40
4.0
 40
4.0
 40
5.0
 40
5.0
 40
5.0
 40
6.0
 40
6.0
 40
6.0
 40
7.0
 40
7.0
 40
7.0
 40
8.0
 40
8.0
 40
8.0
 40
9.0
 40
9.0
 40
9.0
 40
10.0
 40
10.0
 40
10.0
 40
11.0
 40
11.0
 40
11.0
 40
12.0
 40
12.0
 40
12.0
 40
13.0
 40
13.0
 40
13.0
 40
14.0
 40
14.0
 40
14.0
 40
15.0
 40
15.0
 40
15.0
 40
16.0
 40
16.0
 40
16.0
 40
17.0
 40
17.0
 40
17.0
 40
18.0
 40
18.0
 40
18.0
 40
19.0
 40
19.0
 40
19.0
 40
20.0
 40
20.0
 40
20.0
 40
21.0
 40
21.0
 40
21.0
 40
22.0
 40
22.0
 40
22.0
 40
23.0
 40
23.0
 40
23.0
 40
24.0
 40
24.0
 40
24.0
 40
25.0
 40
25.0
 40
25.0
 40
26.0
 40
26.0
 40
26.0
 40
27.0
 40
27.0
 40
27.0
 40
28.0
 40
28.0
 40
28.0
 40
29.0
 40
29.0
 40
29.0
 40
30.0
 40
30.0
 40
30.0
 40
31.0
 40
31.0
 40
31.0
 40
32.0
 40
32.0
 40
32.0
 40
32.0
 10
748.3802088781049
 20
552.7137779198961
 30
0.0
 10
748.3802088781049
 20
561.6095447181926
 30
0.0
 10
748.3802088781049
 20
563.2062275283092
 30
0.0
 10
748.2661220159382
 20
565.0310100844627
 30
0.0
 10
748.1520362326216
 20
566.9698579257802
 30
0.0
 10
747.6958433677692
 20
567.8822569099297
 30
0.0
 10
745.8141083121878
 20
568.281400641205
 30
0.0
 10
745.357908820113
 20
568.3954813385136
 30
0.0
 10
744.3884848994541
 20
568.4524600385881
 30
0.0
 10
743.8752450587251
 20
568.4524600385881
 30
0.0
 10
743.6471453126877
 20
568.4524600385881
 30
0.0
 10
743.4190455666506
 20
568.5665407358966
 30
0.0
 10
743.4190455666506
 20
568.7946404819339
 30
0.0
 10
743.4190455666506
 20
569.1367438645547
 30
0.0
 10
743.7041856613423
 20
569.2508245618637
 30
0.0
 10
744.3314291386549
 20
569.2509016225886
 30
0.0
 10
746.8975420342882
 20
569.2509016225886
 30
0.0
 10
750.3189858235551
 20
569.0798576373508
 30
0.0
 10
750.7751853156299
 20
569.0798576373508
 30
0.0
 10
752.0297493309803
 20
569.0798576373508
 30
0.0
 10
755.3371185877968
 20
569.2509016225886
 30
0.0
 10
757.9602656672258
 20
569.2508245618637
 30
0.0
 10
765.0882435923461
 20
569.2508245618637
 30
0.0
 10
767.654350258296
 20
566.8557772284716
 30
0.0
 10
768.5667338072517
 20
566.0004340051216
 30
0.0
 10
769.8212977909093
 20
564.8029103384255
 30
0.0
 10
771.4179034999667
 20
562.2368036076505
 30
0.0
 10
771.4179034999667
 20
559.2145744455256
 30
0.0
 10
771.4179034999667
 20
551.1170951097799
 30
0.0
 10
765.4873873135382
 20
545.6428553263338
 30
0.0
 10
757.389985477843
 20
545.6428553263338
 30
0.0
 10
757.1048453831512
 20
545.6428553263338
 30
0.0
 10
756.4776019058385
 20
545.6428553263338
 30
0.0
 10
756.1924618111467
 20
545.6997415535379
 30
0.0
 10
755.9073217164549
 20
545.6997415535379
 30
0.0
 10
755.5652183338341
 20
545.8138376629916
 30
0.0
 10
755.5652183338341
 20
546.0989006969583
 30
0.0
 10
755.5652183338341
 20
546.5552388983383
 30
0.0
 10
755.9073217164549
 20
546.6121405376874
 30
0.0
 10
757.1048453831512
 20
546.6121405376874
 30
0.0
 10
762.6362179881217
 20
546.6121405376874
 30
0.0
 10
766.9700510374707
 20
550.6609110298503
 30
0.0
 10
766.9700510374707
 20
555.9071281279841
 30
0.0
 10
766.9700510374707
 20
557.7889510327922
 30
0.0
 10
766.7990070565537
 20
561.6095447181926
 30
0.0
 10
763.7767009100537
 20
564.6888912896967
 30
0.0
 10
760.7543950833137
 20
567.7681608004758
 30
0.0
 10
757.2759047805342
 20
567.5400610544386
 30
0.0
 10
755.9643620651095
 20
567.5400610544386
 30
0.0
 10
754.9949381444506
 20
567.5400610544386
 30
0.0
 10
754.0255912845171
 20
567.4260574178547
 30
0.0
 10
753.5123514437881
 20
567.1979576718174
 30
0.0
 10
753.1701710004417
 20
567.0838769745089
 30
0.0
 10
753.0561519517134
 20
566.6847178310884
 30
0.0
 10
753.0561519517134
 20
566.1145147024301
 30
0.0
 10
753.0561519517134
 20
566.1145147024301
 30
0.0
 10
753.0561519517134
 20
542.6775278035584
 30
0.0
 10
753.0561519517134
 20
542.6775278035584
 30
0.0
 10
753.0561519517134
 20
537.203195547242
 30
0.0
 10
753.0561519517134
 20
532.6983026237297
 30
0.0
 10
753.341292046405
 20
530.3032552903373
 30
0.0
 10
753.5123514437881
 20
528.6496091922916
 30
0.0
 10
753.8545318871339
 20
527.3951222376663
 30
0.0
 10
755.5652183338341
 20
527.1669454309042
 30
0.0
 10
756.3635212085298
 20
527.0528647335952
 30
0.0
 10
757.6180852238802
 20
526.9387686241417
 30
0.0
 10
758.1313250646092
 20
526.9387686241417
 30
0.0
 10
758.4734284472299
 20
526.9387686241417
 30
0.0
 10
758.587524556684
 20
526.7678016996288
 30
0.0
 10
758.587524556684
 20
526.5968193629706
 30
0.0
 10
758.587524556684
 20
526.3116022075537
 30
0.0
 10
758.3023844619922
 20
526.1404657494457
 30
0.0
 10
757.6751255725345
 20
526.1404657494457
 30
0.0
 10
754.538815713101
 20
526.1404657494457
 30
0.0
 10
750.9463217737379
 20
526.3116022075537
 30
0.0
 10
750.6611816790463
 20
526.3116022075537
 30
0.0
 10
750.4901222816632
 20
526.3116022075537
 30
0.0
 10
746.8975420342882
 20
526.1404657494457
 30
0.0
 10
745.1868494227301
 20
526.1404657494457
 30
0.0
 10
744.5595288846922
 20
526.1404657494457
 30
0.0
 10
744.2744658507257
 20
526.2545618588996
 30
0.0
 10
744.2744658507257
 20
526.5968193629706
 30
0.0
 10
744.2744658507257
 20
526.7678016996288
 30
0.0
 10
744.3884848994541
 20
526.9387686241417
 30
0.0
 10
744.7306653428004
 20
526.9387686241417
 30
0.0
 10
745.2438281228044
 20
526.9387686241417
 30
0.0
 10
745.9281119487711
 20
527.0528647335952
 30
0.0
 10
746.4413517895004
 20
527.1669454309042
 30
0.0
 10
747.581832025113
 20
527.3951222376663
 30
0.0
 10
747.8669721198047
 20
528.6496091922916
 30
0.0
 10
748.0950684751702
 20
530.3032552903373
 30
0.0
 10
748.3802088781049
 20
532.6983026237297
 30
0.0
 10
748.3802088781049
 20
537.203195547242
 30
0.0
 10
748.3802088781049
 20
542.6775278035584
 30
0.0
 10
748.3802088781049
 20
542.6775278035584
 30
0.0
 10
748.3802088781049
 20
552.7137779198961
 30
0.0
 10
748.3802088781049
 20
552.7137779198961
 30
0.0
  0
HATCH
  5
A3BEE
330
A3BE6
100
AcDbEntity
  8
0
100
AcDbHatch
 10
0.0
 20
0.0
 30
0.0
210
0.0
220
0.0
230
1.0
  2
SOLID
 70
     1
 71
     0
 91
        1
 92
        1
 93
        1
 72
     4
 94
        3
 73
     0
 74
     0
 95
      101
 96
       97
 40
0.0
 40
0.0
 40
0.0
 40
0.0
 40
1.0
 40
1.0
 40
1.0
 40
2.0
 40
2.0
 40
2.0
 40
3.0
 40
3.0
 40
3.0
 40
4.0
 40
4.0
 40
4.0
 40
5.0
 40
5.0
 40
5.0
 40
6.0
 40
6.0
 40
6.0
 40
7.0
 40
7.0
 40
7.0
 40
8.0
 40
8.0
 40
8.0
 40
9.0
 40
9.0
 40
9.0
 40
10.0
 40
10.0
 40
10.0
 40
11.0
 40
11.0
 40
11.0
 40
12.0
 40
12.0
 40
12.0
 40
13.0
 40
13.0
 40
13.0
 40
14.0
 40
14.0
 40
14.0
 40
15.0
 40
15.0
 40
15.0
 40
16.0
 40
16.0
 40
16.0
 40
17.0
 40
17.0
 40
17.0
 40
18.0
 40
18.0
 40
18.0
 40
19.0
 40
19.0
 40
19.0
 40
20.0
 40
20.0
 40
20.0
 40
21.0
 40
21.0
 40
21.0
 40
22.0
 40
22.0
 40
22.0
 40
23.0
 40
23.0
 40
23.0
 40
24.0
 40
24.0
 40
24.0
 40
25.0
 40
25.0
 40
25.0
 40
26.0
 40
26.0
 40
26.0
 40
27.0
 40
27.0
 40
27.0
 40
28.0
 40
28.0
 40
28.0
 40
29.0
 40
29.0
 40
29.0
 40
30.0
 40
30.0
 40
30.0
 40
31.0
 40
31.0
 40
31.0
 40
32.0
 40
32.0
 40
32.0
 40
32.0
 10
748.3802088781049
 20
552.7137779198961
 10
748.3802088781049
 20
561.6095447181926
 10
748.3802088781049
 20
563.2062275283092
 10
748.2661220159382
 20
565.0310100844627
 10
748.1520362326216
 20
566.9698579257802
 10
747.6958433677692
 20
567.8822569099297
 10
745.8141083121878
 20
568.281400641205
 10
745.357908820113
 20
568.3954813385136
 10
744.3884848994541
 20
568.4524600385881
 10
743.8752450587251
 20
568.4524600385881
 10
743.6471453126877
 20
568.4524600385881
 10
743.4190455666506
 20
568.5665407358966
 10
743.4190455666506
 20
568.7946404819339
 10
743.4190455666506
 20
569.1367438645547
 10
743.7041856613423
 20
569.2508245618637
 10
744.3314291386549
 20
569.2509016225886
 10
746.8975420342882
 20
569.2509016225886
 10
750.3189858235551
 20
569.0798576373508
 10
750.7751853156299
 20
569.0798576373508
 10
752.0297493309803
 20
569.0798576373508
 10
755.3371185877968
 20
569.2509016225886
 10
757.9602656672258
 20
569.2508245618637
 10
765.0882435923461
 20
569.2508245618637
 10
767.654350258296
 20
566.8557772284716
 10
768.5667338072517
 20
566.0004340051216
 10
769.8212977909093
 20
564.8029103384255
 10
771.4179034999667
 20
562.2368036076505
 10
771.4179034999667
 20
559.2145744455256
 10
771.4179034999667
 20
551.1170951097799
 10
765.4873873135382
 20
545.6428553263338
 10
757.389985477843
 20
545.6428553263338
 10
757.1048453831512
 20
545.6428553263338
 10
756.4776019058385
 20
545.6428553263338
 10
756.1924618111467
 20
545.6997415535379
 10
755.9073217164549
 20
545.6997415535379
 10
755.5652183338341
 20
545.8138376629916
 10
755.5652183338341
 20
546.0989006969583
 10
755.5652183338341
 20
546.5552388983383
 10
755.9073217164549
 20
546.6121405376874
 10
757.1048453831512
 20
546.6121405376874
 10
762.6362179881217
 20
546.6121405376874
 10
766.9700510374707
 20
550.6609110298503
 10
766.9700510374707
 20
555.9071281279841
 10
766.9700510374707
 20
557.7889510327922
 10
766.7990070565537
 20
561.6095447181926
 10
763.7767009100537
 20
564.6888912896967
 10
760.7543950833137
 20
567.7681608004758
 10
757.2759047805342
 20
567.5400610544386
 10
755.9643620651095
 20
567.5400610544386
 10
754.9949381444506
 20
567.5400610544386
 10
754.0255912845171
 20
567.4260574178547
 10
753.5123514437881
 20
567.1979576718174
 10
753.1701710004417
 20
567.0838769745089
 10
753.0561519517134
 20
566.6847178310884
 10
753.0561519517134
 20
566.1145147024301
 10
753.0561519517134
 20
566.1145147024301
 10
753.0561519517134
 20
542.6775278035584
 10
753.0561519517134
 20
542.6775278035584
 10
753.0561519517134
 20
537.203195547242
 10
753.0561519517134
 20
532.6983026237297
 10
753.341292046405
 20
530.3032552903373
 10
753.5123514437881
 20
528.6496091922916
 10
753.8545318871339
 20
527.3951222376663
 10
755.5652183338341
 20
527.1669454309042
 10
756.3635212085298
 20
527.0528647335952
 10
757.6180852238802
 20
526.9387686241417
 10
758.1313250646092
 20
526.9387686241417
 10
758.4734284472299
 20
526.9387686241417
 10
758.587524556684
 20
526.7678016996288
 10
758.587524556684
 20
526.5968193629706
 10
758.587524556684
 20
526.3116022075537
 10
758.3023844619922
 20
526.1404657494457
 10
757.6751255725345
 20
526.1404657494457
 10
754.538815713101
 20
526.1404657494457
 10
750.9463217737379
 20
526.3116022075537
 10
750.6611816790463
 20
526.3116022075537
 10
750.4901222816632
 20
526.3116022075537
 10
746.8975420342882
 20
526.1404657494457
 10
745.1868494227301
 20
526.1404657494457
 10
744.5595288846922
 20
526.1404657494457
 10
744.2744658507257
 20
526.2545618588996
 10
744.2744658507257
 20
526.5968193629706
 10
744.2744658507257
 20
526.7678016996288
 10
744.3884848994541
 20
526.9387686241417
 10
744.7306653428004
 20
526.9387686241417
 10
745.2438281228044
 20
526.9387686241417
 10
745.9281119487711
 20
527.0528647335952
 10
746.4413517895004
 20
527.1669454309042
 10
747.581832025113
 20
527.3951222376663
 10
747.8669721198047
 20
528.6496091922916
 10
748.0950684751702
 20
530.3032552903373
 10
748.3802088781049
 20
532.6983026237297
 10
748.3802088781049
 20
537.203195547242
 10
748.3802088781049
 20
542.6775278035584
 10
748.3802088781049
 20
542.6775278035584
 10
748.3802088781049
 20
552.7137779198961
 10
748.3802088781049
 20
552.7137779198961
 97
        0
 97
        0
 75
     2
 76
     1
 98
        0
450
        0
451
        0
460
0.0
461
0.0
452
        1
462
0.0
453
        0
470

  0
SPLINE
  5
A3BEF
330
A3BE6
100
AcDbEntity
  8
0
370
     0
100
AcDbSpline
210
0.0
220
0.0
230
1.0
 70
     9
 71
     3
 72
   158
 73
   154
 74
     0
 42
0.000000001
 43
0.0000000001
 40
0.0
 40
0.0
 40
0.0
 40
0.0
 40
1.0
 40
1.0
 40
1.0
 40
2.0
 40
2.0
 40
2.0
 40
3.0
 40
3.0
 40
3.0
 40
4.0
 40
4.0
 40
4.0
 40
5.0
 40
5.0
 40
5.0
 40
6.0
 40
6.0
 40
6.0
 40
7.0
 40
7.0
 40
7.0
 40
8.0
 40
8.0
 40
8.0
 40
9.0
 40
9.0
 40
9.0
 40
10.0
 40
10.0
 40
10.0
 40
11.0
 40
11.0
 40
11.0
 40
12.0
 40
12.0
 40
12.0
 40
13.0
 40
13.0
 40
13.0
 40
14.0
 40
14.0
 40
14.0
 40
15.0
 40
15.0
 40
15.0
 40
16.0
 40
16.0
 40
16.0
 40
17.0
 40
17.0
 40
17.0
 40
18.0
 40
18.0
 40
18.0
 40
19.0
 40
19.0
 40
19.0
 40
20.0
 40
20.0
 40
20.0
 40
21.0
 40
21.0
 40
21.0
 40
22.0
 40
22.0
 40
22.0
 40
23.0
 40
23.0
 40
23.0
 40
24.0
 40
24.0
 40
24.0
 40
25.0
 40
25.0
 40
25.0
 40
26.0
 40
26.0
 40
26.0
 40
27.0
 40
27.0
 40
27.0
 40
28.0
 40
28.0
 40
28.0
 40
29.0
 40
29.0
 40
29.0
 40
30.0
 40
30.0
 40
30.0
 40
31.0
 40
31.0
 40
31.0
 40
32.0
 40
32.0
 40
32.0
 40
33.0
 40
33.0
 40
33.0
 40
34.0
 40
34.0
 40
34.0
 40
35.0
 40
35.0
 40
35.0
 40
36.0
 40
36.0
 40
36.0
 40
37.0
 40
37.0
 40
37.0
 40
38.0
 40
38.0
 40
38.0
 40
39.0
 40
39.0
 40
39.0
 40
40.0
 40
40.0
 40
40.0
 40
41.0
 40
41.0
 40
41.0
 40
42.0
 40
42.0
 40
42.0
 40
43.0
 40
43.0
 40
43.0
 40
44.0
 40
44.0
 40
44.0
 40
45.0
 40
45.0
 40
45.0
 40
46.0
 40
46.0
 40
46.0
 40
47.0
 40
47.0
 40
47.0
 40
48.0
 40
48.0
 40
48.0
 40
49.0
 40
49.0
 40
49.0
 40
50.0
 40
50.0
 40
50.0
 40
51.0
 40
51.0
 40
51.0
 40
51.0
 10
785.1795778954573
 20
548.7791651857673
 30
0.0
 10
785.1795778954573
 20
556.3062872714043
 30
0.0
 10
785.1795778954573
 20
557.6748703354834
 30
0.0
 10
785.0655579128174
 20
559.2145744455256
 30
0.0
 10
784.9514781494201
 20
560.8682205435711
 30
0.0
 10
784.6663371309022
 20
561.6666004789919
 30
0.0
 10
783.0126910746312
 20
561.8946848128842
 30
0.0
 10
782.6135319412942
 20
561.9517405736838
 30
0.0
 10
781.7581270909736
 20
562.0087809223381
 30
0.0
 10
781.3019276104236
 20
562.0087809223381
 30
0.0
 10
781.1308682173619
 20
562.0087809223381
 30
0.0
 10
780.9027684770867
 20
562.2368036076505
 30
0.0
 10
780.9027684770867
 20
562.4079246536132
 30
0.0
 10
780.9027684770867
 20
562.6929876875798
 30
0.0
 10
781.1308682173619
 20
562.8070837970336
 30
0.0
 10
781.7011483923387
 20
562.8070837970336
 30
0.0
 10
783.9821149708001
 20
562.8070837970336
 30
0.0
 10
787.2324437968518
 20
562.6929876875798
 30
0.0
 10
787.5175838843404
 20
562.6929876875798
 30
0.0
 10
787.8596872583192
 20
562.6929876875798
 30
0.0
 10
798.3521366016702
 20
562.6360243996506
 30
0.0
 10
799.4926969516241
 20
562.6929876875798
 30
0.0
 10
800.4620591992146
 20
562.7500280362345
 30
0.0
 10
801.3744427481702
 20
562.9211644943421
 30
0.0
 10
801.7736635300854
 20
562.9781277822717
 30
0.0
 10
802.0016862096374
 20
563.0351681309257
 30
0.0
 10
802.2298630106357
 20
563.2062275283092
 30
0.0
 10
802.4578856901875
 20
563.2062275283092
 30
0.0
 10
802.6290067318276
 20
563.2062275283092
 30
0.0
 10
802.6860470790412
 20
562.9781277822717
 30
0.0
 10
802.6860470790412
 20
562.7500280362345
 30
0.0
 10
802.6860470790412
 20
562.4079246536132
 30
0.0
 10
802.4009069915527
 20
561.8376444642299
 30
0.0
 10
802.2868262971256
 20
560.4690614001509
 30
0.0
 10
802.2298630106357
 20
560.0128773202214
 30
0.0
 10
802.1157669040642
 20
557.8459913814466
 30
0.0
 10
802.0016862096374
 20
557.2757111920632
 30
0.0
 10
801.9447229231472
 20
557.0476114460258
 30
0.0
 10
801.7736635300854
 20
556.7624713513342
 30
0.0
 10
801.5454867290872
 20
556.7624713513342
 30
0.0
 10
801.260423702322
 20
556.7624713513342
 30
0.0
 10
801.1463430078952
 20
556.9906481580964
 30
0.0
 10
801.1463430078952
 20
557.3898073015168
 30
0.0
 10
801.1463430078952
 20
557.7319106841379
 30
0.0
 10
801.0893026606819
 20
558.5302906195586
 30
0.0
 10
800.8612813140747
 20
559.1004937482169
 30
0.0
 10
800.519099546428
 20
559.8988582714926
 30
0.0
 10
800.0058597186646
 20
560.2409770662586
 30
0.0
 10
797.2686936596533
 20
560.5831575096046
 30
0.0
 10
796.4133504579107
 20
560.6971611461882
 30
0.0
 10
790.5968533173306
 20
560.7542014948427
 30
0.0
 10
790.0266502030769
 20
560.7542014948427
 30
0.0
 10
789.7985504628018
 20
560.7542014948427
 30
0.0
 10
789.7415101155884
 20
560.5831575096046
 30
0.0
 10
789.7415101155884
 20
560.2409770662586
 30
0.0
 10
789.7415101155884
 20
560.2409770662586
 30
0.0
 10
789.7415101155884
 20
547.0684787390671
 30
0.0
 10
789.7415101155884
 20
547.0684787390671
 30
0.0
 10
789.7415101155884
 20
546.7262212349961
 30
0.0
 10
789.7415101155884
 20
546.5552388983383
 30
0.0
 10
790.0266502030769
 20
546.5552388983383
 30
0.0
 10
790.653893664544
 20
546.5552388983383
 30
0.0
 10
797.2686936596533
 20
546.5552388983383
 30
0.0
 10
798.4091769488838
 20
546.6693350077918
 30
0.0
 10
799.6067005853277
 20
546.7832615836505
 30
0.0
 10
800.3480401533662
 20
546.8403019323049
 30
0.0
 10
800.8612813140747
 20
547.3535417730337
 30
0.0
 10
801.2033833551086
 20
547.6956451556548
 30
0.0
 10
801.4314830953836
 20
547.9807852503463
 30
0.0
 10
801.6025424884452
 20
547.9807852503463
 30
0.0
 10
801.7736635300854
 20
547.9807852503463
 30
0.0
 10
801.8876825759337
 20
547.8667816137629
 30
0.0
 10
801.8876825759337
 20
547.5816415190711
 30
0.0
 10
801.8876825759337
 20
547.2965014243794
 30
0.0
 10
801.6025424884452
 20
546.4981985496838
 30
0.0
 10
801.4885234425971
 20
544.9014540909875
 30
0.0
 10
801.3744427481702
 20
543.9321688796337
 30
0.0
 10
801.260423702322
 20
542.1073863234799
 30
0.0
 10
801.260423702322
 20
541.7651288194089
 30
0.0
 10
801.260423702322
 20
541.3659850881336
 30
0.0
 10
801.1463430078952
 20
540.8527452474046
 30
0.0
 10
800.8042396339165
 20
540.8527452474046
 30
0.0
 10
800.5761398936412
 20
540.8527452474046
 30
0.0
 10
800.4620591992146
 20
541.0238817055126
 30
0.0
 10
800.4620591992146
 20
541.3089447394792
 30
0.0
 10
800.4620591992146
 20
541.7651288194089
 30
0.0
 10
800.4620591992146
 20
542.278368660138
 30
0.0
 10
800.2339594589395
 20
542.9056891981757
 30
0.0
 10
800.0629000658776
 20
543.5899113755628
 30
0.0
 10
799.6067005853277
 20
544.1601915649458
 30
0.0
 10
797.6679298537129
 20
544.3882142502582
 30
0.0
 10
796.2993468242071
 20
544.5593352962212
 30
0.0
 10
790.9390337520325
 20
544.6163756448757
 30
0.0
 10
790.0836905502902
 20
544.6163756448757
 30
0.0
 10
789.7985504628018
 20
544.6163756448757
 30
0.0
 10
789.7415101155884
 20
544.4452545989125
 30
0.0
 10
789.7415101155884
 20
544.2741181408043
 30
0.0
 10
789.7415101155884
 20
544.2741181408043
 30
0.0
 10
789.7415101155884
 20
540.2254247093667
 30
0.0
 10
789.7415101155884
 20
540.2254247093667
 30
0.0
 10
789.7415101155884
 20
538.571778611321
 30
0.0
 10
789.6844697683749
 20
532.9263253090418
 30
0.0
 10
789.7415101155884
 20
531.9570555098331
 30
0.0
 10
789.8555908100153
 20
528.7066495409461
 30
0.0
 10
790.7679743589708
 20
528.0793290029081
 30
0.0
 10
795.7290666492301
 20
528.0793290029081
 30
0.0
 10
797.040593919378
 20
528.0793290029081
 30
0.0
 10
799.4356579013413
 20
528.0793290029081
 30
0.0
 10
800.7471838745582
 20
528.5925688436374
 30
0.0
 10
802.0587265568506
 20
529.1628490330207
 30
0.0
 10
802.7430257776758
 20
530.0181922563708
 30
0.0
 10
803.0282289014294
 20
531.9570555098331
 30
0.0
 10
803.1422465595911
 20
532.5271815777666
 30
0.0
 10
803.2563286474667
 20
532.6983026237297
 30
0.0
 10
803.5413902807832
 20
532.6983026237297
 30
0.0
 10
803.8265303682717
 20
532.6983026237297
 30
0.0
 10
803.8835707154849
 20
532.2991588924543
 30
0.0
 10
803.8835090669067
 20
531.9570555098331
 30
0.0
 10
803.8835090669067
 20
531.614798005762
 30
0.0
 10
803.48434993357
 20
528.3075058096708
 30
0.0
 10
803.1992098460815
 20
527.2810261282127
 30
0.0
 10
802.8571064721027
 20
526.0263850521372
 30
0.0
 10
802.3438666443393
 20
526.0263850521372
 30
0.0
 10
800.4050818219997
 20
526.0263850521372
 30
0.0
 10
796.6414501981859
 20
526.0263850521372
 30
0.0
 10
793.7332401582573
 20
526.1404657494457
 30
0.0
 10
791.6803579079265
 20
526.1975215102451
 30
0.0
 10
789.5704507225267
 20
526.3116022075537
 30
0.0
 10
788.2589080402342
 20
526.3116022075537
 30
0.0
 10
787.5175838843404
 20
526.3116022075537
 30
0.0
 10
787.4034877777693
 20
526.3116022075537
 30
0.0
 10
786.434140942323
 20
526.3116022075537
 30
0.0
 10
785.3506980003059
 20
526.2545618588996
 30
0.0
 10
784.3812741041367
 20
526.1975215102451
 30
0.0
 10
783.2407908149061
 20
526.1404657494457
 30
0.0
 10
782.4424108996542
 20
526.1404657494457
 30
0.0
 10
781.9291710718905
 20
526.1404657494457
 30
0.0
 10
781.6441080451252
 20
526.2545618588996
 30
0.0
 10
781.6441080451252
 20
526.5396248928664
 30
0.0
 10
781.6441080451252
 20
526.7107459388292
 30
0.0
 10
781.7581270909736
 20
526.9387686241417
 30
0.0
 10
782.0432671784621
 20
526.9387686241417
 30
0.0
 10
782.4994512468675
 20
526.9387686241417
 30
0.0
 10
783.1266947083348
 20
527.1099050822497
 30
0.0
 10
783.5828941888848
 20
527.1669454309042
 30
0.0
 10
784.5523180850539
 20
527.3380664768668
 30
0.0
 10
784.6663371309022
 20
528.3075058096708
 30
0.0
 10
784.8945139319002
 20
529.7331292224042
 30
0.0
 10
785.1795778954573
 20
531.7288787030705
 30
0.0
 10
785.1795778954573
 20
535.5495494491964
 30
0.0
 10
785.1795778954573
 20
540.2254247093667
 30
0.0
 10
785.1795778954573
 20
540.2254247093667
 30
0.0
 10
785.1795778954573
 20
548.7791651857673
 30
0.0
 10
785.1795778954573
 20
548.7791651857673
 30
0.0
  0
HATCH
  5
A3BF0
330
A3BE6
100
AcDbEntity
  8
0
100
AcDbHatch
 10
0.0
 20
0.0
 30
0.0
210
0.0
220
0.0
230
1.0
  2
SOLID
 70
     1
 71
     0
 91
        1
 92
        1
 93
        1
 72
     4
 94
        3
 73
     0
 74
     0
 95
      158
 96
      154
 40
0.0
 40
0.0
 40
0.0
 40
0.0
 40
1.0
 40
1.0
 40
1.0
 40
2.0
 40
2.0
 40
2.0
 40
3.0
 40
3.0
 40
3.0
 40
4.0
 40
4.0
 40
4.0
 40
5.0
 40
5.0
 40
5.0
 40
6.0
 40
6.0
 40
6.0
 40
7.0
 40
7.0
 40
7.0
 40
8.0
 40
8.0
 40
8.0
 40
9.0
 40
9.0
 40
9.0
 40
10.0
 40
10.0
 40
10.0
 40
11.0
 40
11.0
 40
11.0
 40
12.0
 40
12.0
 40
12.0
 40
13.0
 40
13.0
 40
13.0
 40
14.0
 40
14.0
 40
14.0
 40
15.0
 40
15.0
 40
15.0
 40
16.0
 40
16.0
 40
16.0
 40
17.0
 40
17.0
 40
17.0
 40
18.0
 40
18.0
 40
18.0
 40
19.0
 40
19.0
 40
19.0
 40
20.0
 40
20.0
 40
20.0
 40
21.0
 40
21.0
 40
21.0
 40
22.0
 40
22.0
 40
22.0
 40
23.0
 40
23.0
 40
23.0
 40
24.0
 40
24.0
 40
24.0
 40
25.0
 40
25.0
 40
25.0
 40
26.0
 40
26.0
 40
26.0
 40
27.0
 40
27.0
 40
27.0
 40
28.0
 40
28.0
 40
28.0
 40
29.0
 40
29.0
 40
29.0
 40
30.0
 40
30.0
 40
30.0
 40
31.0
 40
31.0
 40
31.0
 40
32.0
 40
32.0
 40
32.0
 40
33.0
 40
33.0
 40
33.0
 40
34.0
 40
34.0
 40
34.0
 40
35.0
 40
35.0
 40
35.0
 40
36.0
 40
36.0
 40
36.0
 40
37.0
 40
37.0
 40
37.0
 40
38.0
 40
38.0
 40
38.0
 40
39.0
 40
39.0
 40
39.0
 40
40.0
 40
40.0
 40
40.0
 40
41.0
 40
41.0
 40
41.0
 40
42.0
 40
42.0
 40
42.0
 40
43.0
 40
43.0
 40
43.0
 40
44.0
 40
44.0
 40
44.0
 40
45.0
 40
45.0
 40
45.0
 40
46.0
 40
46.0
 40
46.0
 40
47.0
 40
47.0
 40
47.0
 40
48.0
 40
48.0
 40
48.0
 40
49.0
 40
49.0
 40
49.0
 40
50.0
 40
50.0
 40
50.0
 40
51.0
 40
51.0
 40
51.0
 40
51.0
 10
785.1795778954573
 20
548.7791651857673
 10
785.1795778954573
 20
556.3062872714043
 10
785.1795778954573
 20
557.6748703354834
 10
785.0655579128174
 20
559.2145744455256
 10
784.9514781494201
 20
560.8682205435711
 10
784.6663371309022
 20
561.6666004789919
 10
783.0126910746312
 20
561.8946848128842
 10
782.6135319412942
 20
561.9517405736838
 10
781.7581270909736
 20
562.0087809223381
 10
781.3019276104236
 20
562.0087809223381
 10
781.1308682173619
 20
562.0087809223381
 10
780.9027684770867
 20
562.2368036076505
 10
780.9027684770867
 20
562.4079246536132
 10
780.9027684770867
 20
562.6929876875798
 10
781.1308682173619
 20
562.8070837970336
 10
781.7011483923387
 20
562.8070837970336
 10
783.9821149708001
 20
562.8070837970336
 10
787.2324437968518
 20
562.6929876875798
 10
787.5175838843404
 20
562.6929876875798
 10
787.8596872583192
 20
562.6929876875798
 10
798.3521366016702
 20
562.6360243996506
 10
799.4926969516241
 20
562.6929876875798
 10
800.4620591992146
 20
562.7500280362345
 10
801.3744427481702
 20
562.9211644943421
 10
801.7736635300854
 20
562.9781277822717
 10
802.0016862096374
 20
563.0351681309257
 10
802.2298630106357
 20
563.2062275283092
 10
802.4578856901875
 20
563.2062275283092
 10
802.6290067318276
 20
563.2062275283092
 10
802.6860470790412
 20
562.9781277822717
 10
802.6860470790412
 20
562.7500280362345
 10
802.6860470790412
 20
562.4079246536132
 10
802.4009069915527
 20
561.8376444642299
 10
802.2868262971256
 20
560.4690614001509
 10
802.2298630106357
 20
560.0128773202214
 10
802.1157669040642
 20
557.8459913814466
 10
802.0016862096374
 20
557.2757111920632
 10
801.9447229231472
 20
557.0476114460258
 10
801.7736635300854
 20
556.7624713513342
 10
801.5454867290872
 20
556.7624713513342
 10
801.260423702322
 20
556.7624713513342
 10
801.1463430078952
 20
556.9906481580964
 10
801.1463430078952
 20
557.3898073015168
 10
801.1463430078952
 20
557.7319106841379
 10
801.0893026606819
 20
558.5302906195586
 10
800.8612813140747
 20
559.1004937482169
 10
800.519099546428
 20
559.8988582714926
 10
800.0058597186646
 20
560.2409770662586
 10
797.2686936596533
 20
560.5831575096046
 10
796.4133504579107
 20
560.6971611461882
 10
790.5968533173306
 20
560.7542014948427
 10
790.0266502030769
 20
560.7542014948427
 10
789.7985504628018
 20
560.7542014948427
 10
789.7415101155884
 20
560.5831575096046
 10
789.7415101155884
 20
560.2409770662586
 10
789.7415101155884
 20
560.2409770662586
 10
789.7415101155884
 20
547.0684787390671
 10
789.7415101155884
 20
547.0684787390671
 10
789.7415101155884
 20
546.7262212349961
 10
789.7415101155884
 20
546.5552388983383
 10
790.0266502030769
 20
546.5552388983383
 10
790.653893664544
 20
546.5552388983383
 10
797.2686936596533
 20
546.5552388983383
 10
798.4091769488838
 20
546.6693350077918
 10
799.6067005853277
 20
546.7832615836505
 10
800.3480401533662
 20
546.8403019323049
 10
800.8612813140747
 20
547.3535417730337
 10
801.2033833551086
 20
547.6956451556548
 10
801.4314830953836
 20
547.9807852503463
 10
801.6025424884452
 20
547.9807852503463
 10
801.7736635300854
 20
547.9807852503463
 10
801.8876825759337
 20
547.8667816137629
 10
801.8876825759337
 20
547.5816415190711
 10
801.8876825759337
 20
547.2965014243794
 10
801.6025424884452
 20
546.4981985496838
 10
801.4885234425971
 20
544.9014540909875
 10
801.3744427481702
 20
543.9321688796337
 10
801.260423702322
 20
542.1073863234799
 10
801.260423702322
 20
541.7651288194089
 10
801.260423702322
 20
541.3659850881336
 10
801.1463430078952
 20
540.8527452474046
 10
800.8042396339165
 20
540.8527452474046
 10
800.5761398936412
 20
540.8527452474046
 10
800.4620591992146
 20
541.0238817055126
 10
800.4620591992146
 20
541.3089447394792
 10
800.4620591992146
 20
541.7651288194089
 10
800.4620591992146
 20
542.278368660138
 10
800.2339594589395
 20
542.9056891981757
 10
800.0629000658776
 20
543.5899113755628
 10
799.6067005853277
 20
544.1601915649458
 10
797.6679298537129
 20
544.3882142502582
 10
796.2993468242071
 20
544.5593352962212
 10
790.9390337520325
 20
544.6163756448757
 10
790.0836905502902
 20
544.6163756448757
 10
789.7985504628018
 20
544.6163756448757
 10
789.7415101155884
 20
544.4452545989125
 10
789.7415101155884
 20
544.2741181408043
 10
789.7415101155884
 20
544.2741181408043
 10
789.7415101155884
 20
540.2254247093667
 10
789.7415101155884
 20
540.2254247093667
 10
789.7415101155884
 20
538.571778611321
 10
789.6844697683749
 20
532.9263253090418
 10
789.7415101155884
 20
531.9570555098331
 10
789.8555908100153
 20
528.7066495409461
 10
790.7679743589708
 20
528.0793290029081
 10
795.7290666492301
 20
528.0793290029081
 10
797.040593919378
 20
528.0793290029081
 10
799.4356579013413
 20
528.0793290029081
 10
800.7471838745582
 20
528.5925688436374
 10
802.0587265568506
 20
529.1628490330207
 10
802.7430257776758
 20
530.0181922563708
 10
803.0282289014294
 20
531.9570555098331
 10
803.1422465595911
 20
532.5271815777666
 10
803.2563286474667
 20
532.6983026237297
 10
803.5413902807832
 20
532.6983026237297
 10
803.8265303682717
 20
532.6983026237297
 10
803.8835707154849
 20
532.2991588924543
 10
803.8835090669067
 20
531.9570555098331
 10
803.8835090669067
 20
531.614798005762
 10
803.48434993357
 20
528.3075058096708
 10
803.1992098460815
 20
527.2810261282127
 10
802.8571064721027
 20
526.0263850521372
 10
802.3438666443393
 20
526.0263850521372
 10
800.4050818219997
 20
526.0263850521372
 10
796.6414501981859
 20
526.0263850521372
 10
793.7332401582573
 20
526.1404657494457
 10
791.6803579079265
 20
526.1975215102451
 10
789.5704507225267
 20
526.3116022075537
 10
788.2589080402342
 20
526.3116022075537
 10
787.5175838843404
 20
526.3116022075537
 10
787.4034877777693
 20
526.3116022075537
 10
786.434140942323
 20
526.3116022075537
 10
785.3506980003059
 20
526.2545618588996
 10
784.3812741041367
 20
526.1975215102451
 10
783.2407908149061
 20
526.1404657494457
 10
782.4424108996542
 20
526.1404657494457
 10
781.9291710718905
 20
526.1404657494457
 10
781.6441080451252
 20
526.2545618588996
 10
781.6441080451252
 20
526.5396248928664
 10
781.6441080451252
 20
526.7107459388292
 10
781.7581270909736
 20
526.9387686241417
 10
782.0432671784621
 20
526.9387686241417
 10
782.4994512468675
 20
526.9387686241417
 10
783.1266947083348
 20
527.1099050822497
 10
783.5828941888848
 20
527.1669454309042
 10
784.5523180850539
 20
527.3380664768668
 10
784.6663371309022
 20
528.3075058096708
 10
784.8945139319002
 20
529.7331292224042
 10
785.1795778954573
 20
531.7288787030705
 10
785.1795778954573
 20
535.5495494491964
 10
785.1795778954573
 20
540.2254247093667
 10
785.1795778954573
 20
540.2254247093667
 10
785.1795778954573
 20
548.7791651857673
 10
785.1795778954573
 20
548.7791651857673
 97
        0
 97
        0
 75
     2
 76
     1
 98
        0
450
        0
451
        0
460
0.0
461
0.0
452
        1
462
0.0
453
        0
470

  0
SPLINE
  5
A3BF1
330
A3BE6
100
AcDbEntity
  8
0
370
     0
100
AcDbSpline
210
0.0
220
0.0
230
1.0
 70
     9
 71
     3
 72
    89
 73
    85
 74
     0
 42
0.000000001
 43
0.0000000001
 40
0.0
 40
0.0
 40
0.0
 40
0.0
 40
1.0
 40
1.0
 40
1.0
 40
2.0
 40
2.0
 40
2.0
 40
3.0
 40
3.0
 40
3.0
 40
4.0
 40
4.0
 40
4.0
 40
5.0
 40
5.0
 40
5.0
 40
6.0
 40
6.0
 40
6.0
 40
7.0
 40
7.0
 40
7.0
 40
8.0
 40
8.0
 40
8.0
 40
9.0
 40
9.0
 40
9.0
 40
10.0
 40
10.0
 40
10.0
 40
11.0
 40
11.0
 40
11.0
 40
12.0
 40
12.0
 40
12.0
 40
13.0
 40
13.0
 40
13.0
 40
14.0
 40
14.0
 40
14.0
 40
15.0
 40
15.0
 40
15.0
 40
16.0
 40
16.0
 40
16.0
 40
17.0
 40
17.0
 40
17.0
 40
18.0
 40
18.0
 40
18.0
 40
19.0
 40
19.0
 40
19.0
 40
20.0
 40
20.0
 40
20.0
 40
21.0
 40
21.0
 40
21.0
 40
22.0
 40
22.0
 40
22.0
 40
23.0
 40
23.0
 40
23.0
 40
24.0
 40
24.0
 40
24.0
 40
25.0
 40
25.0
 40
25.0
 40
26.0
 40
26.0
 40
26.0
 40
27.0
 40
27.0
 40
27.0
 40
28.0
 40
28.0
 40
28.0
 40
28.0
 10
828.4025820470018
 20
561.8376444642299
 30
0.0
 10
829.0297638598906
 20
563.4343272743465
 30
0.0
 10
829.2579252487442
 20
563.719467369038
 30
0.0
 10
829.600182744169
 20
563.719467369038
 30
0.0
 10
830.1132684504864
 20
563.719467369038
 30
0.0
 10
830.2844049042711
 20
563.0351681309257
 30
0.0
 10
830.7976447320346
 20
561.9517405736838
 30
0.0
 10
831.7100282809903
 20
559.8988582714926
 30
0.0
 10
839.7503745920952
 20
539.8833213267456
 30
0.0
 10
842.8296440250855
 20
532.5271815777666
 30
0.0
 10
844.6544289743942
 20
528.1934251123621
 30
0.0
 10
846.0231482739485
 20
527.5660891621793
 30
0.0
 10
847.1065141552427
 20
527.2239857795584
 30
0.0
 10
847.8479307840045
 20
526.9959630942461
 30
0.0
 10
848.5890391698738
 20
526.9387686241417
 30
0.0
 10
849.1022635854927
 20
526.9387686241417
 30
0.0
 10
849.3874807337043
 20
526.9387686241417
 30
0.0
 10
849.729584107683
 20
526.8248420482831
 30
0.0
 10
849.729584107683
 20
526.5396248928664
 30
0.0
 10
849.729584107683
 20
526.2545618588996
 30
0.0
 10
849.1594580541521
 20
526.1404657494457
 30
0.0
 10
848.5890391698738
 20
526.1404657494457
 30
0.0
 10
847.8479307840045
 20
526.1404657494457
 30
0.0
 10
844.1411867073778
 20
526.1404657494457
 30
0.0
 10
840.6627581410509
 20
526.2545618588996
 30
0.0
 10
839.693334244882
 20
526.3116022075537
 30
0.0
 10
838.8950313903531
 20
526.3116022075537
 30
0.0
 10
838.8950313903531
 20
526.5968193629706
 30
0.0
 10
838.8950313903531
 20
526.8248420482831
 30
0.0
 10
839.0091274969243
 20
526.8248420482831
 30
0.0
 10
839.2371347643317
 20
526.9387686241417
 30
0.0
 10
839.5223519125432
 20
527.0528647335952
 30
0.0
 10
840.0355917403066
 20
527.4520084648705
 30
0.0
 10
839.693334244882
 20
528.2504654610163
 30
0.0
 10
839.693334244882
 20
528.2504654610163
 30
0.0
 10
835.1884436352943
 20
539.3702356074668
 30
0.0
 10
835.1884436352943
 20
539.3702356074668
 30
0.0
 10
835.0745148621919
 20
539.5982582927793
 30
0.0
 10
835.0173203935325
 20
539.6552986414334
 30
0.0
 10
834.7322573667668
 20
539.6552986414334
 30
0.0
 10
834.7322573667668
 20
539.6552986414334
 30
0.0
 10
823.1562880206755
 20
539.6552986414334
 30
0.0
 10
823.1562880206755
 20
539.6552986414334
 30
0.0
 10
822.9282653411235
 20
539.6552986414334
 30
0.0
 10
822.7571288873386
 20
539.5412179441249
 30
0.0
 10
822.6430481929121
 20
539.256139498013
 30
0.0
 10
822.6430481929121
 20
539.256139498013
 30
0.0
 10
819.7918014394739
 20
531.5007018963085
 30
0.0
 10
819.7918014394739
 20
531.5007018963085
 30
0.0
 10
819.3357560803699
 20
530.3032552903373
 30
0.0
 10
819.0506948460525
 20
529.1058086843661
 30
0.0
 10
819.0506948460525
 20
528.2504654610163
 30
0.0
 10
819.0506948460525
 20
527.2810261282127
 30
0.0
 10
819.9058821339006
 20
526.9387686241417
 30
0.0
 10
820.7613794570889
 20
526.9387686241417
 30
0.0
 10
820.7613794570889
 20
526.9387686241417
 30
0.0
 10
821.2174248161929
 20
526.9387686241417
 30
0.0
 10
821.2174248161929
 20
526.9387686241417
 30
0.0
 10
821.616568537385
 20
526.9387686241417
 30
0.0
 10
821.7306646439563
 20
526.7678016996288
 30
0.0
 10
821.7306646439563
 20
526.5396248928664
 30
0.0
 10
821.7306646439563
 20
526.2545618588996
 30
0.0
 10
821.445601617191
 20
526.1404657494457
 30
0.0
 10
820.9894021366409
 20
526.1404657494457
 30
0.0
 10
819.79195556092
 20
526.1404657494457
 30
0.0
 10
817.0547895019083
 20
526.3116022075537
 30
0.0
 10
816.4845093269317
 20
526.3116022075537
 30
0.0
 10
815.9712694991679
 20
526.3116022075537
 30
0.0
 10
813.4622802411547
 20
526.1404657494457
 30
0.0
 10
811.4093363422451
 20
526.1404657494457
 30
0.0
 10
810.7820158200551
 20
526.1404657494457
 30
0.0
 10
810.4400665675225
 20
526.2545618588996
 30
0.0
 10
810.4400665675225
 20
526.5396248928664
 30
0.0
 10
810.4400665675225
 20
526.7678016996288
 30
0.0
 10
810.6679351256284
 20
526.9387686241417
 30
0.0
 10
810.8960965144817
 20
526.9387686241417
 30
0.0
 10
811.2383694220513
 20
526.9387686241417
 30
0.0
 10
811.9796165172221
 20
526.9959630942461
 30
0.0
 10
812.3787772744602
 20
527.0528647335952
 30
0.0
 10
814.6597422290204
 20
527.3380664768668
 30
0.0
 10
815.629166125189
 20
529.0487683357119
 30
0.0
 10
816.5985900213581
 20
531.5007018963085
 30
0.0
 10
816.5985900213581
 20
531.5007018963085
 30
0.0
 10
828.4025820470018
 20
561.8376444642299
 30
0.0
 10
828.4025820470018
 20
561.8376444642299
 30
0.0
  0
SPLINE
  5
A3BF2
330
A3BE6
100
AcDbEntity
  8
0
370
     0
100
AcDbSpline
210
0.0
220
0.0
230
1.0
 70
     9
 71
     3
 72
    23
 73
    19
 74
     0
 42
0.000000001
 43
0.0000000001
 40
0.0
 40
0.0
 40
0.0
 40
0.0
 40
1.0
 40
1.0
 40
1.0
 40
2.0
 40
2.0
 40
2.0
 40
3.0
 40
3.0
 40
3.0
 40
4.0
 40
4.0
 40
4.0
 40
5.0
 40
5.0
 40
5.0
 40
6.0
 40
6.0
 40
6.0
 40
6.0
 10
833.9908407380052
 20
541.6510481221002
 30
0.0
 10
834.2190197146358
 20
541.6510481221002
 30
0.0
 10
834.2190197146358
 20
541.7651288194089
 30
0.0
 10
834.1621159010918
 20
541.9933056261711
 30
0.0
 10
834.1621159010918
 20
541.9933056261711
 30
0.0
 10
829.2008849015308
 20
555.2798846506714
 30
0.0
 10
829.2008849015308
 20
555.2798846506714
 30
0.0
 10
828.9156677533192
 20
556.0212242374375
 30
0.0
 10
828.6306047265536
 20
556.0212242374375
 30
0.0
 10
828.3455416997885
 20
555.2798846506714
 30
0.0
 10
828.3455416997885
 20
555.2798846506714
 30
0.0
 10
823.669527848439
 20
541.9933056261711
 30
0.0
 10
823.669527848439
 20
541.9933056261711
 30
0.0
 10
823.6126262105271
 20
541.7651288194089
 30
0.0
 10
823.669527848439
 20
541.6510481221002
 30
0.0
 10
823.8406488900791
 20
541.6510481221002
 30
0.0
 10
823.8406488900791
 20
541.6510481221002
 30
0.0
 10
833.9908407380052
 20
541.6510481221002
 30
0.0
 10
833.9908407380052
 20
541.6510481221002
 30
0.0
  0
HATCH
  5
A3BF3
330
A3BE6
100
AcDbEntity
  8
0
100
AcDbHatch
 10
0.0
 20
0.0
 30
0.0
210
0.0
220
0.0
230
1.0
  2
SOLID
 70
     1
 71
     0
 91
        2
 92
        1
 93
        1
 72
     4
 94
        3
 73
     0
 74
     0
 95
       89
 96
       85
 40
0.0
 40
0.0
 40
0.0
 40
0.0
 40
1.0
 40
1.0
 40
1.0
 40
2.0
 40
2.0
 40
2.0
 40
3.0
 40
3.0
 40
3.0
 40
4.0
 40
4.0
 40
4.0
 40
5.0
 40
5.0
 40
5.0
 40
6.0
 40
6.0
 40
6.0
 40
7.0
 40
7.0
 40
7.0
 40
8.0
 40
8.0
 40
8.0
 40
9.0
 40
9.0
 40
9.0
 40
10.0
 40
10.0
 40
10.0
 40
11.0
 40
11.0
 40
11.0
 40
12.0
 40
12.0
 40
12.0
 40
13.0
 40
13.0
 40
13.0
 40
14.0
 40
14.0
 40
14.0
 40
15.0
 40
15.0
 40
15.0
 40
16.0
 40
16.0
 40
16.0
 40
17.0
 40
17.0
 40
17.0
 40
18.0
 40
18.0
 40
18.0
 40
19.0
 40
19.0
 40
19.0
 40
20.0
 40
20.0
 40
20.0
 40
21.0
 40
21.0
 40
21.0
 40
22.0
 40
22.0
 40
22.0
 40
23.0
 40
23.0
 40
23.0
 40
24.0
 40
24.0
 40
24.0
 40
25.0
 40
25.0
 40
25.0
 40
26.0
 40
26.0
 40
26.0
 40
27.0
 40
27.0
 40
27.0
 40
28.0
 40
28.0
 40
28.0
 40
28.0
 10
828.4025820470018
 20
561.8376444642299
 10
829.0297638598906
 20
563.4343272743465
 10
829.2579252487442
 20
563.719467369038
 10
829.600182744169
 20
563.719467369038
 10
830.1132684504864
 20
563.719467369038
 10
830.2844049042711
 20
563.0351681309257
 10
830.7976447320346
 20
561.9517405736838
 10
831.7100282809903
 20
559.8988582714926
 10
839.7503745920952
 20
539.8833213267456
 10
842.8296440250855
 20
532.5271815777666
 10
844.6544289743942
 20
528.1934251123621
 10
846.0231482739485
 20
527.5660891621793
 10
847.1065141552427
 20
527.2239857795584
 10
847.8479307840045
 20
526.9959630942461
 10
848.5890391698738
 20
526.9387686241417
 10
849.1022635854927
 20
526.9387686241417
 10
849.3874807337043
 20
526.9387686241417
 10
849.729584107683
 20
526.8248420482831
 10
849.729584107683
 20
526.5396248928664
 10
849.729584107683
 20
526.2545618588996
 10
849.1594580541521
 20
526.1404657494457
 10
848.5890391698738
 20
526.1404657494457
 10
847.8479307840045
 20
526.1404657494457
 10
844.1411867073778
 20
526.1404657494457
 10
840.6627581410509
 20
526.2545618588996
 10
839.693334244882
 20
526.3116022075537
 10
838.8950313903531
 20
526.3116022075537
 10
838.8950313903531
 20
526.5968193629706
 10
838.8950313903531
 20
526.8248420482831
 10
839.0091274969243
 20
526.8248420482831
 10
839.2371347643317
 20
526.9387686241417
 10
839.5223519125432
 20
527.0528647335952
 10
840.0355917403066
 20
527.4520084648705
 10
839.693334244882
 20
528.2504654610163
 10
839.693334244882
 20
528.2504654610163
 10
835.1884436352943
 20
539.3702356074668
 10
835.1884436352943
 20
539.3702356074668
 10
835.0745148621919
 20
539.5982582927793
 10
835.0173203935325
 20
539.6552986414334
 10
834.7322573667668
 20
539.6552986414334
 10
834.7322573667668
 20
539.6552986414334
 10
823.1562880206755
 20
539.6552986414334
 10
823.1562880206755
 20
539.6552986414334
 10
822.9282653411235
 20
539.6552986414334
 10
822.7571288873386
 20
539.5412179441249
 10
822.6430481929121
 20
539.256139498013
 10
822.6430481929121
 20
539.256139498013
 10
819.7918014394739
 20
531.5007018963085
 10
819.7918014394739
 20
531.5007018963085
 10
819.3357560803699
 20
530.3032552903373
 10
819.0506948460525
 20
529.1058086843661
 10
819.0506948460525
 20
528.2504654610163
 10
819.0506948460525
 20
527.2810261282127
 10
819.9058821339006
 20
526.9387686241417
 10
820.7613794570889
 20
526.9387686241417
 10
820.7613794570889
 20
526.9387686241417
 10
821.2174248161929
 20
526.9387686241417
 10
821.2174248161929
 20
526.9387686241417
 10
821.616568537385
 20
526.9387686241417
 10
821.7306646439563
 20
526.7678016996288
 10
821.7306646439563
 20
526.5396248928664
 10
821.7306646439563
 20
526.2545618588996
 10
821.445601617191
 20
526.1404657494457
 10
820.9894021366409
 20
526.1404657494457
 10
819.79195556092
 20
526.1404657494457
 10
817.0547895019083
 20
526.3116022075537
 10
816.4845093269317
 20
526.3116022075537
 10
815.9712694991679
 20
526.3116022075537
 10
813.4622802411547
 20
526.1404657494457
 10
811.4093363422451
 20
526.1404657494457
 10
810.7820158200551
 20
526.1404657494457
 10
810.4400665675225
 20
526.2545618588996
 10
810.4400665675225
 20
526.5396248928664
 10
810.4400665675225
 20
526.7678016996288
 10
810.6679351256284
 20
526.9387686241417
 10
810.8960965144817
 20
526.9387686241417
 10
811.2383694220513
 20
526.9387686241417
 10
811.9796165172221
 20
526.9959630942461
 10
812.3787772744602
 20
527.0528647335952
 10
814.6597422290204
 20
527.3380664768668
 10
815.629166125189
 20
529.0487683357119
 10
816.5985900213581
 20
531.5007018963085
 10
816.5985900213581
 20
531.5007018963085
 10
828.4025820470018
 20
561.8376444642299
 10
828.4025820470018
 20
561.8376444642299
 97
        0
 97
        0
 92
        1
 93
        1
 72
     4
 94
        3
 73
     0
 74
     0
 95
       23
 96
       19
 40
0.0
 40
0.0
 40
0.0
 40
0.0
 40
1.0
 40
1.0
 40
1.0
 40
2.0
 40
2.0
 40
2.0
 40
3.0
 40
3.0
 40
3.0
 40
4.0
 40
4.0
 40
4.0
 40
5.0
 40
5.0
 40
5.0
 40
6.0
 40
6.0
 40
6.0
 40
6.0
 10
833.9908407380052
 20
541.6510481221002
 10
834.2190197146358
 20
541.6510481221002
 10
834.2190197146358
 20
541.7651288194089
 10
834.1621159010918
 20
541.9933056261711
 10
834.1621159010918
 20
541.9933056261711
 10
829.2008849015308
 20
555.2798846506714
 10
829.2008849015308
 20
555.2798846506714
 10
828.9156677533192
 20
556.0212242374375
 10
828.6306047265536
 20
556.0212242374375
 10
828.3455416997885
 20
555.2798846506714
 10
828.3455416997885
 20
555.2798846506714
 10
823.669527848439
 20
541.9933056261711
 10
823.669527848439
 20
541.9933056261711
 10
823.6126262105271
 20
541.7651288194089
 10
823.669527848439
 20
541.6510481221002
 10
823.8406488900791
 20
541.6510481221002
 10
823.8406488900791
 20
541.6510481221002
 10
833.9908407380052
 20
541.6510481221002
 10
833.9908407380052
 20
541.6510481221002
 97
        0
 97
        0
 75
     2
 76
     1
 98
        0
450
        0
451
        0
460
0.0
461
0.0
452
        1
462
0.0
453
        0
470

  0
SPLINE
  5
A3BF4
330
A3BE6
100
AcDbEntity
  8
0
370
     0
100
AcDbSpline
210
0.0
220
0.0
230
1.0
 70
     9
 71
     3
 72
   113
 73
   109
 74
     0
 42
0.000000001
 43
0.0000000001
 40
0.0
 40
0.0
 40
0.0
 40
0.0
 40
1.0
 40
1.0
 40
1.0
 40
2.0
 40
2.0
 40
2.0
 40
3.0
 40
3.0
 40
3.0
 40
4.0
 40
4.0
 40
4.0
 40
5.0
 40
5.0
 40
5.0
 40
6.0
 40
6.0
 40
6.0
 40
7.0
 40
7.0
 40
7.0
 40
8.0
 40
8.0
 40
8.0
 40
9.0
 40
9.0
 40
9.0
 40
10.0
 40
10.0
 40
10.0
 40
11.0
 40
11.0
 40
11.0
 40
12.0
 40
12.0
 40
12.0
 40
13.0
 40
13.0
 40
13.0
 40
14.0
 40
14.0
 40
14.0
 40
15.0
 40
15.0
 40
15.0
 40
16.0
 40
16.0
 40
16.0
 40
17.0
 40
17.0
 40
17.0
 40
18.0
 40
18.0
 40
18.0
 40
19.0
 40
19.0
 40
19.0
 40
20.0
 40
20.0
 40
20.0
 40
21.0
 40
21.0
 40
21.0
 40
22.0
 40
22.0
 40
22.0
 40
23.0
 40
23.0
 40
23.0
 40
24.0
 40
24.0
 40
24.0
 40
25.0
 40
25.0
 40
25.0
 40
26.0
 40
26.0
 40
26.0
 40
27.0
 40
27.0
 40
27.0
 40
28.0
 40
28.0
 40
28.0
 40
29.0
 40
29.0
 40
29.0
 40
30.0
 40
30.0
 40
30.0
 40
31.0
 40
31.0
 40
31.0
 40
32.0
 40
32.0
 40
32.0
 40
33.0
 40
33.0
 40
33.0
 40
34.0
 40
34.0
 40
34.0
 40
35.0
 40
35.0
 40
35.0
 40
36.0
 40
36.0
 40
36.0
 40
36.0
 10
859.4269054982955
 20
548.7791651857673
 30
0.0
 10
859.4269054982955
 20
556.3062872714043
 30
0.0
 10
859.4269054982955
 20
557.6748703354834
 30
0.0
 10
859.3128093917242
 20
559.2145744455256
 30
0.0
 10
859.1987286972974
 20
560.8682205435711
 30
0.0
 10
858.9136656705321
 20
561.6666004789919
 30
0.0
 10
857.2600223719577
 20
561.8946848128842
 30
0.0
 10
856.8607217716229
 20
561.9517405736838
 30
0.0
 10
856.005517279182
 20
562.0087809223381
 30
0.0
 10
855.5491790893304
 20
562.0087809223381
 30
0.0
 10
855.3781994671497
 20
562.0087809223381
 30
0.0
 10
855.1500353681381
 20
562.2368036076505
 30
0.0
 10
855.1500353681381
 20
562.4079246536132
 30
0.0
 10
855.1500353681381
 20
562.6929876875798
 30
0.0
 10
855.3781994671497
 20
562.8070837970336
 30
0.0
 10
855.9484769319686
 20
562.8071608577587
 30
0.0
 10
858.2294462926167
 20
562.8071608577587
 30
0.0
 10
861.5939300916318
 20
562.6930647483052
 30
0.0
 10
861.8789931183972
 20
562.6930647483052
 30
0.0
 10
862.3922329461604
 20
562.6930647483052
 30
0.0
 10
866.6119086076585
 20
562.8071608577587
 30
0.0
 10
868.1516126788043
 20
562.8070837970336
 30
0.0
 10
871.3449782183657
 20
562.8070837970336
 30
0.0
 10
874.8805858412078
 20
562.5219437023421
 30
0.0
 10
877.5036557936479
 20
560.6971611461882
 30
0.0
 10
878.7580040072807
 20
559.7847775741841
 30
0.0
 10
880.9819335954912
 20
557.4468476501712
 30
0.0
 10
880.9819335954912
 20
554.0823609839755
 30
0.0
 10
880.9819335954912
 20
550.4898516324673
 30
0.0
 10
879.4994052238974
 20
547.0112842689627
 30
0.0
 10
874.8233945739332
 20
543.019785307629
 30
0.0
 10
878.9292791703669
 20
537.8874177246291
 30
0.0
 10
882.4075570082248
 20
533.4966054984252
 30
0.0
 10
885.3159948373454
 20
530.4743917484453
 30
0.0
 10
887.9959664276976
 20
527.7372256202871
 30
0.0
 10
889.6497511932702
 20
527.2810261282127
 30
0.0
 10
890.9043922376506
 20
527.1099050822497
 30
0.0
 10
891.8736774245182
 20
526.9387686241417
 30
0.0
 10
892.3869208973584
 20
526.9387686241417
 30
0.0
 10
892.6719802790469
 20
526.9387686241417
 30
0.0
 10
892.9570433058124
 20
526.9387686241417
 30
0.0
 10
893.1283184688986
 20
526.7107459388292
 30
0.0
 10
893.1283184688986
 20
526.5396248928664
 30
0.0
 10
893.1283184688986
 20
526.2545618588996
 30
0.0
 10
892.8429662679834
 20
526.1404657494457
 30
0.0
 10
891.9305790624301
 20
526.1404657494457
 30
0.0
 10
891.9305790624301
 20
526.1404657494457
 30
0.0
 10
888.7942538700817
 20
526.1404657494457
 30
0.0
 10
888.7942538700817
 20
526.1404657494457
 30
0.0
 10
885.9433153595359
 20
526.1404657494457
 30
0.0
 10
884.6886743151554
 20
526.4256829048624
 30
0.0
 10
883.4340178586302
 20
527.1099050822497
 30
0.0
 10
881.2673015081864
 20
528.2504654610163
 30
0.0
 10
879.4425189981305
 20
530.5883183243039
 30
0.0
 10
876.5912722446923
 20
534.2378680244666
 30
0.0
 10
874.4812879985696
 20
536.8610921646211
 30
0.0
 10
872.2573617673216
 20
539.9974020240545
 30
0.0
 10
871.1738417645811
 20
541.3089447394792
 30
0.0
 10
870.9458190850291
 20
541.5369674247914
 30
0.0
 10
870.8317383906024
 20
541.5941618948957
 30
0.0
 10
870.4896350166237
 20
541.5941618948957
 30
0.0
 10
870.4896350166237
 20
541.5941618948957
 30
0.0
 10
864.1029193496452
 20
541.7080884707544
 30
0.0
 10
864.1029193496452
 20
541.7080884707544
 30
0.0
 10
863.8747425486469
 20
541.7080884707544
 30
0.0
 10
863.7606618542204
 20
541.5941618948957
 30
0.0
 10
863.7606618542204
 20
541.3089447394792
 30
0.0
 10
863.7606618542204
 20
541.3089447394792
 30
0.0
 10
863.7606618542204
 20
540.1685384821623
 30
0.0
 10
863.7606618542204
 20
540.1685384821623
 30
0.0
 10
863.7606618542204
 20
535.4925091005418
 30
0.0
 10
863.7606618542204
 20
531.7288787030705
 30
0.0
 10
863.9888386552184
 20
529.7331292224042
 30
0.0
 10
864.1598209875569
 20
528.3075058096708
 30
0.0
 10
864.4450227236237
 20
527.3951222376663
 30
0.0
 10
865.9845880854684
 20
527.1669454309042
 30
0.0
 10
866.6691030763177
 20
527.0528647335952
 30
0.0
 10
867.7524689576124
 20
526.9387686241417
 30
0.0
 10
868.2086684381623
 20
526.9387686241417
 30
0.0
 10
868.550771812141
 20
526.9387686241417
 30
0.0
 10
868.6078121593544
 20
526.7107459388292
 30
0.0
 10
868.6078121593544
 20
526.5396248928664
 30
0.0
 10
868.6078121593544
 20
526.3116022075537
 30
0.0
 10
868.3797894798024
 20
526.1404657494457
 30
0.0
 10
867.8095093048256
 20
526.1404657494457
 30
0.0
 10
865.0723432458141
 20
526.1404657494457
 30
0.0
 10
861.8789931183972
 20
526.3116022075537
 30
0.0
 10
861.6508317295435
 20
526.3116022075537
 30
0.0
 10
861.5939300916318
 20
526.3116022075537
 30
0.0
 10
858.2294462926167
 20
526.1404657494457
 30
0.0
 10
856.6897394392841
 20
526.1404657494457
 30
0.0
 10
856.1764996115208
 20
526.1404657494457
 30
0.0
 10
855.8914365847552
 20
526.2545618588996
 30
0.0
 10
855.8914365847552
 20
526.5396248928664
 30
0.0
 10
855.8914365847552
 20
526.7107459388292
 30
0.0
 10
856.005517279182
 20
526.9387686241417
 30
0.0
 10
856.2905984512992
 20
526.9387686241417
 30
0.0
 10
856.7467797864976
 20
526.9387686241417
 30
0.0
 10
857.3739615993861
 20
527.0528647335952
 30
0.0
 10
857.8302997892379
 20
527.1669454309042
 30
0.0
 10
858.7995849761052
 20
527.3951222376663
 30
0.0
 10
858.9136656705321
 20
528.3075058096708
 30
0.0
 10
859.1418452767662
 20
529.7331292224042
 30
0.0
 10
859.4269054982955
 20
531.7288787030705
 30
0.0
 10
859.4269054982955
 20
535.5495494491964
 30
0.0
 10
859.4269054982955
 20
540.2254247093667
 30
0.0
 10
859.4269054982955
 20
540.2254247093667
 30
0.0
 10
859.4269054982955
 20
548.7791651857673
 30
0.0
 10
859.4269054982955
 20
548.7791651857673
 30
0.0
  0
SPLINE
  5
A3BF5
330
A3BE6
100
AcDbEntity
  8
0
370
     0
100
AcDbSpline
210
0.0
220
0.0
230
1.0
 70
     9
 71
     3
 72
    29
 73
    25
 74
     0
 42
0.000000001
 43
0.0000000001
 40
0.0
 40
0.0
 40
0.0
 40
0.0
 40
1.0
 40
1.0
 40
1.0
 40
2.0
 40
2.0
 40
2.0
 40
3.0
 40
3.0
 40
3.0
 40
4.0
 40
4.0
 40
4.0
 40
5.0
 40
5.0
 40
5.0
 40
6.0
 40
6.0
 40
6.0
 40
7.0
 40
7.0
 40
7.0
 40
8.0
 40
8.0
 40
8.0
 40
8.0
 10
863.7606618542204
 20
544.6734314056751
 30
0.0
 10
863.7606618542204
 20
544.3882142502582
 30
0.0
 10
863.8747425486469
 20
544.2172319136004
 30
0.0
 10
864.1029193496452
 20
544.0461108676371
 30
0.0
 10
864.8443389276996
 20
543.6469517242171
 30
0.0
 10
867.4102114621874
 20
543.3048483415961
 30
0.0
 10
869.6341376934354
 20
543.3048483415961
 30
0.0
 10
870.8317383906024
 20
543.3048483415961
 30
0.0
 10
872.200321420108
 20
543.3617345688003
 30
0.0
 10
873.3977711611997
 20
544.1601915649458
 30
0.0
 10
875.1084543993139
 20
545.3005978222626
 30
0.0
 10
876.4201512030521
 20
547.8667816137629
 30
0.0
 10
876.4201512030521
 20
551.5732946018547
 30
0.0
 10
876.4201512030521
 20
557.6178916354091
 30
0.0
 10
873.1127049690638
 20
561.0963973503337
 30
0.0
 10
867.7524689576124
 20
561.0963973503337
 30
0.0
 10
866.269808218983
 20
561.0963973503337
 30
0.0
 10
864.6730454031757
 20
560.9252608922256
 30
0.0
 10
864.1598209875569
 20
560.811257255642
 30
0.0
 10
863.9319399435501
 20
560.6971611461882
 30
0.0
 10
863.7606618542204
 20
560.5261171609503
 30
0.0
 10
863.7606618542204
 20
560.2409770662586
 30
0.0
 10
863.7606618542204
 20
560.2409770662586
 30
0.0
 10
863.7606618542204
 20
544.6734314056751
 30
0.0
 10
863.7606618542204
 20
544.6734314056751
 30
0.0
  0
HATCH
  5
A3BF6
330
A3BE6
100
AcDbEntity
  8
0
100
AcDbHatch
 10
0.0
 20
0.0
 30
0.0
210
0.0
220
0.0
230
1.0
  2
SOLID
 70
     1
 71
     0
 91
        2
 92
        1
 93
        1
 72
     4
 94
        3
 73
     0
 74
     0
 95
      113
 96
      109
 40
0.0
 40
0.0
 40
0.0
 40
0.0
 40
1.0
 40
1.0
 40
1.0
 40
2.0
 40
2.0
 40
2.0
 40
3.0
 40
3.0
 40
3.0
 40
4.0
 40
4.0
 40
4.0
 40
5.0
 40
5.0
 40
5.0
 40
6.0
 40
6.0
 40
6.0
 40
7.0
 40
7.0
 40
7.0
 40
8.0
 40
8.0
 40
8.0
 40
9.0
 40
9.0
 40
9.0
 40
10.0
 40
10.0
 40
10.0
 40
11.0
 40
11.0
 40
11.0
 40
12.0
 40
12.0
 40
12.0
 40
13.0
 40
13.0
 40
13.0
 40
14.0
 40
14.0
 40
14.0
 40
15.0
 40
15.0
 40
15.0
 40
16.0
 40
16.0
 40
16.0
 40
17.0
 40
17.0
 40
17.0
 40
18.0
 40
18.0
 40
18.0
 40
19.0
 40
19.0
 40
19.0
 40
20.0
 40
20.0
 40
20.0
 40
21.0
 40
21.0
 40
21.0
 40
22.0
 40
22.0
 40
22.0
 40
23.0
 40
23.0
 40
23.0
 40
24.0
 40
24.0
 40
24.0
 40
25.0
 40
25.0
 40
25.0
 40
26.0
 40
26.0
 40
26.0
 40
27.0
 40
27.0
 40
27.0
 40
28.0
 40
28.0
 40
28.0
 40
29.0
 40
29.0
 40
29.0
 40
30.0
 40
30.0
 40
30.0
 40
31.0
 40
31.0
 40
31.0
 40
32.0
 40
32.0
 40
32.0
 40
33.0
 40
33.0
 40
33.0
 40
34.0
 40
34.0
 40
34.0
 40
35.0
 40
35.0
 40
35.0
 40
36.0
 40
36.0
 40
36.0
 40
36.0
 10
859.4269054982955
 20
548.7791651857673
 10
859.4269054982955
 20
556.3062872714043
 10
859.4269054982955
 20
557.6748703354834
 10
859.3128093917242
 20
559.2145744455256
 10
859.1987286972974
 20
560.8682205435711
 10
858.9136656705321
 20
561.6666004789919
 10
857.2600223719577
 20
561.8946848128842
 10
856.8607217716229
 20
561.9517405736838
 10
856.005517279182
 20
562.0087809223381
 10
855.5491790893304
 20
562.0087809223381
 10
855.3781994671497
 20
562.0087809223381
 10
855.1500353681381
 20
562.2368036076505
 10
855.1500353681381
 20
562.4079246536132
 10
855.1500353681381
 20
562.6929876875798
 10
855.3781994671497
 20
562.8070837970336
 10
855.9484769319686
 20
562.8071608577587
 10
858.2294462926167
 20
562.8071608577587
 10
861.5939300916318
 20
562.6930647483052
 10
861.8789931183972
 20
562.6930647483052
 10
862.3922329461604
 20
562.6930647483052
 10
866.6119086076585
 20
562.8071608577587
 10
868.1516126788043
 20
562.8070837970336
 10
871.3449782183657
 20
562.8070837970336
 10
874.8805858412078
 20
562.5219437023421
 10
877.5036557936479
 20
560.6971611461882
 10
878.7580040072807
 20
559.7847775741841
 10
880.9819335954912
 20
557.4468476501712
 10
880.9819335954912
 20
554.0823609839755
 10
880.9819335954912
 20
550.4898516324673
 10
879.4994052238974
 20
547.0112842689627
 10
874.8233945739332
 20
543.019785307629
 10
878.9292791703669
 20
537.8874177246291
 10
882.4075570082248
 20
533.4966054984252
 10
885.3159948373454
 20
530.4743917484453
 10
887.9959664276976
 20
527.7372256202871
 10
889.6497511932702
 20
527.2810261282127
 10
890.9043922376506
 20
527.1099050822497
 10
891.8736774245182
 20
526.9387686241417
 10
892.3869208973584
 20
526.9387686241417
 10
892.6719802790469
 20
526.9387686241417
 10
892.9570433058124
 20
526.9387686241417
 10
893.1283184688986
 20
526.7107459388292
 10
893.1283184688986
 20
526.5396248928664
 10
893.1283184688986
 20
526.2545618588996
 10
892.8429662679834
 20
526.1404657494457
 10
891.9305790624301
 20
526.1404657494457
 10
891.9305790624301
 20
526.1404657494457
 10
888.7942538700817
 20
526.1404657494457
 10
888.7942538700817
 20
526.1404657494457
 10
885.9433153595359
 20
526.1404657494457
 10
884.6886743151554
 20
526.4256829048624
 10
883.4340178586302
 20
527.1099050822497
 10
881.2673015081864
 20
528.2504654610163
 10
879.4425189981305
 20
530.5883183243039
 10
876.5912722446923
 20
534.2378680244666
 10
874.4812879985696
 20
536.8610921646211
 10
872.2573617673216
 20
539.9974020240545
 10
871.1738417645811
 20
541.3089447394792
 10
870.9458190850291
 20
541.5369674247914
 10
870.8317383906024
 20
541.5941618948957
 10
870.4896350166237
 20
541.5941618948957
 10
870.4896350166237
 20
541.5941618948957
 10
864.1029193496452
 20
541.7080884707544
 10
864.1029193496452
 20
541.7080884707544
 10
863.8747425486469
 20
541.7080884707544
 10
863.7606618542204
 20
541.5941618948957
 10
863.7606618542204
 20
541.3089447394792
 10
863.7606618542204
 20
541.3089447394792
 10
863.7606618542204
 20
540.1685384821623
 10
863.7606618542204
 20
540.1685384821623
 10
863.7606618542204
 20
535.4925091005418
 10
863.7606618542204
 20
531.7288787030705
 10
863.9888386552184
 20
529.7331292224042
 10
864.1598209875569
 20
528.3075058096708
 10
864.4450227236237
 20
527.3951222376663
 10
865.9845880854684
 20
527.1669454309042
 10
866.6691030763177
 20
527.0528647335952
 10
867.7524689576124
 20
526.9387686241417
 10
868.2086684381623
 20
526.9387686241417
 10
868.550771812141
 20
526.9387686241417
 10
868.6078121593544
 20
526.7107459388292
 10
868.6078121593544
 20
526.5396248928664
 10
868.6078121593544
 20
526.3116022075537
 10
868.3797894798024
 20
526.1404657494457
 10
867.8095093048256
 20
526.1404657494457
 10
865.0723432458141
 20
526.1404657494457
 10
861.8789931183972
 20
526.3116022075537
 10
861.6508317295435
 20
526.3116022075537
 10
861.5939300916318
 20
526.3116022075537
 10
858.2294462926167
 20
526.1404657494457
 10
856.6897394392841
 20
526.1404657494457
 10
856.1764996115208
 20
526.1404657494457
 10
855.8914365847552
 20
526.2545618588996
 10
855.8914365847552
 20
526.5396248928664
 10
855.8914365847552
 20
526.7107459388292
 10
856.005517279182
 20
526.9387686241417
 10
856.2905984512992
 20
526.9387686241417
 10
856.7467797864976
 20
526.9387686241417
 10
857.3739615993861
 20
527.0528647335952
 10
857.8302997892379
 20
527.1669454309042
 10
858.7995849761052
 20
527.3951222376663
 10
858.9136656705321
 20
528.3075058096708
 10
859.1418452767662
 20
529.7331292224042
 10
859.4269054982955
 20
531.7288787030705
 10
859.4269054982955
 20
535.5495494491964
 10
859.4269054982955
 20
540.2254247093667
 10
859.4269054982955
 20
540.2254247093667
 10
859.4269054982955
 20
548.7791651857673
 10
859.4269054982955
 20
548.7791651857673
 97
        0
 97
        0
 92
        1
 93
        1
 72
     4
 94
        3
 73
     0
 74
     0
 95
       29
 96
       25
 40
0.0
 40
0.0
 40
0.0
 40
0.0
 40
1.0
 40
1.0
 40
1.0
 40
2.0
 40
2.0
 40
2.0
 40
3.0
 40
3.0
 40
3.0
 40
4.0
 40
4.0
 40
4.0
 40
5.0
 40
5.0
 40
5.0
 40
6.0
 40
6.0
 40
6.0
 40
7.0
 40
7.0
 40
7.0
 40
8.0
 40
8.0
 40
8.0
 40
8.0
 10
863.7606618542204
 20
544.6734314056751
 10
863.7606618542204
 20
544.3882142502582
 10
863.8747425486469
 20
544.2172319136004
 10
864.1029193496452
 20
544.0461108676371
 10
864.8443389276996
 20
543.6469517242171
 10
867.4102114621874
 20
543.3048483415961
 10
869.6341376934354
 20
543.3048483415961
 10
870.8317383906024
 20
543.3048483415961
 10
872.200321420108
 20
543.3617345688003
 10
873.3977711611997
 20
544.1601915649458
 10
875.1084543993139
 20
545.3005978222626
 10
876.4201512030521
 20
547.8667816137629
 10
876.4201512030521
 20
551.5732946018547
 10
876.4201512030521
 20
557.6178916354091
 10
873.1127049690638
 20
561.0963973503337
 10
867.7524689576124
 20
561.0963973503337
 10
866.269808218983
 20
561.0963973503337
 10
864.6730454031757
 20
560.9252608922256
 10
864.1598209875569
 20
560.811257255642
 10
863.9319399435501
 20
560.6971611461882
 10
863.7606618542204
 20
560.5261171609503
 10
863.7606618542204
 20
560.2409770662586
 10
863.7606618542204
 20
560.2409770662586
 10
863.7606618542204
 20
544.6734314056751
 10
863.7606618542204
 20
544.6734314056751
 97
        0
 97
        0
 75
     2
 76
     1
 98
        0
450
        0
451
        0
460
0.0
461
0.0
452
        1
462
0.0
453
        0
470

  0
SPLINE
  5
A3BF7
330
A3BE6
100
AcDbEntity
  8
0
370
     0
100
AcDbSpline
210
0.0
220
0.0
230
1.0
 70
     9
 71
     3
 72
    98
 73
    94
 74
     0
 42
0.000000001
 43
0.0000000001
 40
0.0
 40
0.0
 40
0.0
 40
0.0
 40
1.0
 40
1.0
 40
1.0
 40
2.0
 40
2.0
 40
2.0
 40
3.0
 40
3.0
 40
3.0
 40
4.0
 40
4.0
 40
4.0
 40
5.0
 40
5.0
 40
5.0
 40
6.0
 40
6.0
 40
6.0
 40
7.0
 40
7.0
 40
7.0
 40
8.0
 40
8.0
 40
8.0
 40
9.0
 40
9.0
 40
9.0
 40
10.0
 40
10.0
 40
10.0
 40
11.0
 40
11.0
 40
11.0
 40
12.0
 40
12.0
 40
12.0
 40
13.0
 40
13.0
 40
13.0
 40
14.0
 40
14.0
 40
14.0
 40
15.0
 40
15.0
 40
15.0
 40
16.0
 40
16.0
 40
16.0
 40
17.0
 40
17.0
 40
17.0
 40
18.0
 40
18.0
 40
18.0
 40
19.0
 40
19.0
 40
19.0
 40
20.0
 40
20.0
 40
20.0
 40
21.0
 40
21.0
 40
21.0
 40
22.0
 40
22.0
 40
22.0
 40
23.0
 40
23.0
 40
23.0
 40
24.0
 40
24.0
 40
24.0
 40
25.0
 40
25.0
 40
25.0
 40
26.0
 40
26.0
 40
26.0
 40
27.0
 40
27.0
 40
27.0
 40
28.0
 40
28.0
 40
28.0
 40
29.0
 40
29.0
 40
29.0
 40
30.0
 40
30.0
 40
30.0
 40
31.0
 40
31.0
 40
31.0
 40
31.0
 10
908.0118767980762
 20
540.1114981335081
 30
0.0
 10
908.0118767980762
 20
532.9835197791464
 30
0.0
 10
908.1259729075302
 20
530.075232605025
 30
0.0
 10
909.0383564795347
 20
529.2198893816751
 30
0.0
 10
909.8366593542303
 20
528.4215865069795
 30
0.0
 10
911.7755226076925
 20
528.0793290029081
 30
0.0
 10
915.7101353418219
 20
528.0793290029081
 30
0.0
 10
918.3332053605264
 20
528.0793290029081
 30
0.0
 10
920.5571316479552
 20
528.1363693515626
 30
0.0
 10
921.7548864968263
 20
529.561992764296
 30
0.0
 10
922.381898791964
 20
530.3032552903373
 30
0.0
 10
922.7810579353844
 20
531.3297349717953
 30
0.0
 10
922.9523331027976
 20
532.2991588924543
 30
0.0
 10
923.009219330002
 20
532.6412622750751
 30
0.0
 10
923.1802016666597
 20
532.9263253090418
 30
0.0
 10
923.4655729435266
 20
532.9263253090418
 30
0.0
 10
923.6934415073887
 20
532.9263253090418
 30
0.0
 10
923.8075222046974
 20
532.6983026237297
 30
0.0
 10
923.8075222046974
 20
532.1850781951455
 30
0.0
 10
923.8075222046974
 20
531.6718383544163
 30
0.0
 10
923.4655729435266
 20
528.763551180295
 30
0.0
 10
923.0664138001063
 20
527.3380664768668
 30
0.0
 10
922.7241562960356
 20
526.1975215102451
 30
0.0
 10
922.5531893715224
 20
526.0263850521372
 30
0.0
 10
919.8729094705687
 20
526.0263850521372
 30
0.0
 10
916.2805542405104
 20
526.0263850521372
 30
0.0
 10
913.4862090543927
 20
526.0835795222416
 30
0.0
 10
911.1482020696554
 20
526.1975215102451
 30
0.0
 10
908.8673741428763
 20
526.2545618588996
 30
0.0
 10
907.1566876961766
 20
526.3116022075537
 30
0.0
 10
905.6738698133388
 20
526.3116022075537
 30
0.0
 10
905.4457084187216
 20
526.3116022075537
 30
0.0
 10
904.5905039046763
 20
526.3116022075537
 30
0.0
 10
903.6209258625678
 20
526.2545618588996
 30
0.0
 10
902.5947544240095
 20
526.1975215102451
 30
0.0
 10
901.5110918090192
 20
526.1404657494457
 30
0.0
 10
900.7127889544905
 20
526.1404657494457
 30
0.0
 10
900.1995491267269
 20
526.1404657494457
 30
0.0
 10
899.9144860999617
 20
526.2545618588996
 30
0.0
 10
899.9144860999617
 20
526.5396248928664
 30
0.0
 10
899.9144860999617
 20
526.7107459388292
 30
0.0
 10
900.0285706325096
 20
526.9387686241417
 30
0.0
 10
900.3136298211538
 20
526.9387686241417
 30
0.0
 10
900.76998342315
 20
526.9387686241417
 30
0.0
 10
901.396995702448
 20
527.0528647335952
 30
0.0
 10
901.8533493044442
 20
527.1669454309042
 30
0.0
 10
902.822622987872
 20
527.3951222376663
 30
0.0
 10
902.936719097326
 20
528.3075058096708
 30
0.0
 10
903.1648804919427
 20
529.7331292224042
 30
0.0
 10
903.44994352591
 20
531.7288787030705
 30
0.0
 10
903.44994352591
 20
535.5495494491964
 30
0.0
 10
903.44994352591
 20
540.2254247093667
 30
0.0
 10
903.44994352591
 20
540.2254247093667
 30
0.0
 10
903.44994352591
 20
548.7791651857673
 30
0.0
 10
903.44994352591
 20
548.7791651857673
 30
0.0
 10
903.44994352591
 20
556.3062872714043
 30
0.0
 10
903.44994352591
 20
557.6748703354834
 30
0.0
 10
903.3358628286011
 20
559.2145744455256
 30
0.0
 10
903.2217821312924
 20
560.8682205435711
 30
0.0
 10
902.936719097326
 20
561.6666004789919
 30
0.0
 10
901.2829150080213
 20
561.8946848128842
 30
0.0
 10
900.8837558746844
 20
561.9517405736838
 30
0.0
 10
900.0285706325096
 20
562.0087809223381
 30
0.0
 10
899.5722286045367
 20
562.0087809223381
 30
0.0
 10
899.4012462721981
 20
562.0087809223381
 30
0.0
 10
899.1730694712
 20
562.2368036076505
 30
0.0
 10
899.1730694712
 20
562.4079246536132
 30
0.0
 10
899.1730694712
 20
562.6929876875798
 30
0.0
 10
899.4012462721981
 20
562.8070837970336
 30
0.0
 10
899.9713723257288
 20
562.8071608577587
 30
0.0
 10
902.2524969199388
 20
562.8071608577587
 30
0.0
 10
905.3888067793719
 20
562.6930647483052
 30
0.0
 10
905.6738698133388
 20
562.6930647483052
 30
0.0
 10
905.9020466201014
 20
562.6930647483052
 30
0.0
 10
909.6656770175723
 20
562.8071608577587
 30
0.0
 10
911.2053965397594
 20
562.8070837970336
 30
0.0
 10
911.7186209683437
 20
562.8070837970336
 30
0.0
 10
912.0036840023102
 20
562.6929876875798
 30
0.0
 10
912.0036840023102
 20
562.4079246536132
 30
0.0
 10
912.0036840023102
 20
562.2368036076505
 30
0.0
 10
911.7755226076925
 20
562.0657442102674
 30
0.0
 10
911.6045402710346
 20
562.0657442102674
 30
0.0
 10
911.2622827669639
 20
562.0657442102674
 30
0.0
 10
910.5208661194723
 20
562.0087809223381
 30
0.0
 10
909.950740051539
 20
561.9517405736838
 30
0.0
 10
908.4682304116013
 20
561.6666004789919
 30
0.0
 10
908.1828591347344
 20
560.9252608922256
 30
0.0
 10
908.0690712681812
 20
559.2145744455256
 30
0.0
 10
908.0118767980762
 20
557.6748703354834
 30
0.0
 10
908.0118767980762
 20
556.3062872714043
 30
0.0
 10
908.0118767980762
 20
548.7791651857673
 30
0.0
 10
908.0118767980762
 20
548.7791651857673
 30
0.0
 10
908.0118767980762
 20
540.1114981335081
 30
0.0
 10
908.0118767980762
 20
540.1114981335081
 30
0.0
  0
HATCH
  5
A3BF8
330
A3BE6
100
AcDbEntity
  8
0
100
AcDbHatch
 10
0.0
 20
0.0
 30
0.0
210
0.0
220
0.0
230
1.0
  2
SOLID
 70
     1
 71
     0
 91
        1
 92
        1
 93
        1
 72
     4
 94
        3
 73
     0
 74
     0
 95
       98
 96
       94
 40
0.0
 40
0.0
 40
0.0
 40
0.0
 40
1.0
 40
1.0
 40
1.0
 40
2.0
 40
2.0
 40
2.0
 40
3.0
 40
3.0
 40
3.0
 40
4.0
 40
4.0
 40
4.0
 40
5.0
 40
5.0
 40
5.0
 40
6.0
 40
6.0
 40
6.0
 40
7.0
 40
7.0
 40
7.0
 40
8.0
 40
8.0
 40
8.0
 40
9.0
 40
9.0
 40
9.0
 40
10.0
 40
10.0
 40
10.0
 40
11.0
 40
11.0
 40
11.0
 40
12.0
 40
12.0
 40
12.0
 40
13.0
 40
13.0
 40
13.0
 40
14.0
 40
14.0
 40
14.0
 40
15.0
 40
15.0
 40
15.0
 40
16.0
 40
16.0
 40
16.0
 40
17.0
 40
17.0
 40
17.0
 40
18.0
 40
18.0
 40
18.0
 40
19.0
 40
19.0
 40
19.0
 40
20.0
 40
20.0
 40
20.0
 40
21.0
 40
21.0
 40
21.0
 40
22.0
 40
22.0
 40
22.0
 40
23.0
 40
23.0
 40
23.0
 40
24.0
 40
24.0
 40
24.0
 40
25.0
 40
25.0
 40
25.0
 40
26.0
 40
26.0
 40
26.0
 40
27.0
 40
27.0
 40
27.0
 40
28.0
 40
28.0
 40
28.0
 40
29.0
 40
29.0
 40
29.0
 40
30.0
 40
30.0
 40
30.0
 40
31.0
 40
31.0
 40
31.0
 40
31.0
 10
908.0118767980762
 20
540.1114981335081
 10
908.0118767980762
 20
532.9835197791464
 10
908.1259729075302
 20
530.075232605025
 10
909.0383564795347
 20
529.2198893816751
 10
909.8366593542303
 20
528.4215865069795
 10
911.7755226076925
 20
528.0793290029081
 10
915.7101353418219
 20
528.0793290029081
 10
918.3332053605264
 20
528.0793290029081
 10
920.5571316479552
 20
528.1363693515626
 10
921.7548864968263
 20
529.561992764296
 10
922.381898791964
 20
530.3032552903373
 10
922.7810579353844
 20
531.3297349717953
 10
922.9523331027976
 20
532.2991588924543
 10
923.009219330002
 20
532.6412622750751
 10
923.1802016666597
 20
532.9263253090418
 10
923.4655729435266
 20
532.9263253090418
 10
923.6934415073887
 20
532.9263253090418
 10
923.8075222046974
 20
532.6983026237297
 10
923.8075222046974
 20
532.1850781951455
 10
923.8075222046974
 20
531.6718383544163
 10
923.4655729435266
 20
528.763551180295
 10
923.0664138001063
 20
527.3380664768668
 10
922.7241562960356
 20
526.1975215102451
 10
922.5531893715224
 20
526.0263850521372
 10
919.8729094705687
 20
526.0263850521372
 10
916.2805542405104
 20
526.0263850521372
 10
913.4862090543927
 20
526.0835795222416
 10
911.1482020696554
 20
526.1975215102451
 10
908.8673741428763
 20
526.2545618588996
 10
907.1566876961766
 20
526.3116022075537
 10
905.6738698133388
 20
526.3116022075537
 10
905.4457084187216
 20
526.3116022075537
 10
904.5905039046763
 20
526.3116022075537
 10
903.6209258625678
 20
526.2545618588996
 10
902.5947544240095
 20
526.1975215102451
 10
901.5110918090192
 20
526.1404657494457
 10
900.7127889544905
 20
526.1404657494457
 10
900.1995491267269
 20
526.1404657494457
 10
899.9144860999617
 20
526.2545618588996
 10
899.9144860999617
 20
526.5396248928664
 10
899.9144860999617
 20
526.7107459388292
 10
900.0285706325096
 20
526.9387686241417
 10
900.3136298211538
 20
526.9387686241417
 10
900.76998342315
 20
526.9387686241417
 10
901.396995702448
 20
527.0528647335952
 10
901.8533493044442
 20
527.1669454309042
 10
902.822622987872
 20
527.3951222376663
 10
902.936719097326
 20
528.3075058096708
 10
903.1648804919427
 20
529.7331292224042
 10
903.44994352591
 20
531.7288787030705
 10
903.44994352591
 20
535.5495494491964
 10
903.44994352591
 20
540.2254247093667
 10
903.44994352591
 20
540.2254247093667
 10
903.44994352591
 20
548.7791651857673
 10
903.44994352591
 20
548.7791651857673
 10
903.44994352591
 20
556.3062872714043
 10
903.44994352591
 20
557.6748703354834
 10
903.3358628286011
 20
559.2145744455256
 10
903.2217821312924
 20
560.8682205435711
 10
902.936719097326
 20
561.6666004789919
 10
901.2829150080213
 20
561.8946848128842
 10
900.8837558746844
 20
561.9517405736838
 10
900.0285706325096
 20
562.0087809223381
 10
899.5722286045367
 20
562.0087809223381
 10
899.4012462721981
 20
562.0087809223381
 10
899.1730694712
 20
562.2368036076505
 10
899.1730694712
 20
562.4079246536132
 10
899.1730694712
 20
562.6929876875798
 10
899.4012462721981
 20
562.8070837970336
 10
899.9713723257288
 20
562.8071608577587
 10
902.2524969199388
 20
562.8071608577587
 10
905.3888067793719
 20
562.6930647483052
 10
905.6738698133388
 20
562.6930647483052
 10
905.9020466201014
 20
562.6930647483052
 10
909.6656770175723
 20
562.8071608577587
 10
911.2053965397594
 20
562.8070837970336
 10
911.7186209683437
 20
562.8070837970336
 10
912.0036840023102
 20
562.6929876875798
 10
912.0036840023102
 20
562.4079246536132
 10
912.0036840023102
 20
562.2368036076505
 10
911.7755226076925
 20
562.0657442102674
 10
911.6045402710346
 20
562.0657442102674
 10
911.2622827669639
 20
562.0657442102674
 10
910.5208661194723
 20
562.0087809223381
 10
909.950740051539
 20
561.9517405736838
 10
908.4682304116013
 20
561.6666004789919
 10
908.1828591347344
 20
560.9252608922256
 10
908.0690712681812
 20
559.2145744455256
 10
908.0118767980762
 20
557.6748703354834
 10
908.0118767980762
 20
556.3062872714043
 10
908.0118767980762
 20
548.7791651857673
 10
908.0118767980762
 20
548.7791651857673
 10
908.0118767980762
 20
540.1114981335081
 10
908.0118767980762
 20
540.1114981335081
 97
        0
 97
        0
 75
     2
 76
     1
 98
        0
450
        0
451
        0
460
0.0
461
0.0
452
        1
462
0.0
453
        0
470

  0
HATCH
  5
A3BF9
330
A3BE6
100
AcDbEntity
  8
0
100
AcDbHatch
 10
0.0
 20
0.0
 30
0.0
210
0.0
220
0.0
230
1.0
  2
SOLID
 70
     1
 71
     0
 91
        4
 92
        1
 93
        1
 72
     4
 94
        3
 73
     0
 74
     0
 95
       17
 96
       13
 40
0.0
 40
0.0
 40
0.0
 40
0.0
 40
1.0
 40
1.0
 40
1.0
 40
2.0
 40
2.0
 40
2.0
 40
3.0
 40
3.0
 40
3.0
 40
4.0
 40
4.0
 40
4.0
 40
4.0
 10
926.3686902311143
 20
568.0206148522866
 10
926.3686902311143
 20
566.30581008745
 10
924.989195830572
 20
564.9454042468512
 10
923.2371806951592
 20
564.9454042468512
 10
921.4848812217136
 20
564.9454042468512
 10
920.0868669372937
 20
566.30581008745
 10
920.0868669372937
 20
568.0206148522866
 10
920.0868669372937
 20
569.7354196171243
 10
921.4848812217136
 20
571.0778173823042
 10
923.2555678879553
 20
571.0778173823042
 10
924.989195830572
 20
571.0778173823042
 10
926.3686902311143
 20
569.7354196171243
 10
926.3686902311143
 20
568.0206148522866
 97
        0
 97
        0
 92
        1
 93
        1
 72
     4
 94
        3
 73
     0
 74
     0
 95
       17
 96
       13
 40
0.0
 40
0.0
 40
0.0
 40
0.0
 40
1.0
 40
1.0
 40
1.0
 40
2.0
 40
2.0
 40
2.0
 40
3.0
 40
3.0
 40
3.0
 40
4.0
 40
4.0
 40
4.0
 40
4.0
 10
920.8697064095444
 20
568.0206148522866
 10
920.8697064095444
 20
566.6599246736555
 10
921.8950483121432
 20
565.5789662518161
 10
923.2555678879553
 20
565.5789662518161
 10
924.5791803870931
 20
565.5601620299054
 10
925.5856991119124
 20
566.6599246736555
 10
925.5856991119124
 20
568.0020570566711
 10
925.5856991119124
 20
569.3627472353028
 10
924.5791803870931
 20
570.4627942170857
 10
923.2184902084616
 20
570.4627942170857
 10
921.8950483121432
 20
570.4627942170857
 10
920.8697064095444
 20
569.3627472353028
 10
920.8697064095444
 20
568.0206148522866
 97
        0
 97
        0
 92
        1
 93
        1
 72
     4
 94
        3
 73
     0
 74
     0
 95
       47
 96
       43
 40
0.0
 40
0.0
 40
0.0
 40
0.0
 40
1.0
 40
1.0
 40
1.0
 40
2.0
 40
2.0
 40
2.0
 40
3.0
 40
3.0
 40
3.0
 40
4.0
 40
4.0
 40
4.0
 40
5.0
 40
5.0
 40
5.0
 40
6.0
 40
6.0
 40
6.0
 40
7.0
 40
7.0
 40
7.0
 40
8.0
 40
8.0
 40
8.0
 40
9.0
 40
9.0
 40
9.0
 40
10.0
 40
10.0
 40
10.0
 40
11.0
 40
11.0
 40
11.0
 40
12.0
 40
12.0
 40
12.0
 40
13.0
 40
13.0
 40
13.0
 40
14.0
 40
14.0
 40
14.0
 40
14.0
 10
922.7522895696768
 20
566.4363970680382
 10
922.7522895696768
 20
566.4363970680382
 10
922.0441551766096
 20
566.4363970680382
 10
922.0441551766096
 20
566.4363970680382
 10
922.0441551766096
 20
566.4363970680382
 10
922.0441551766096
 20
569.4933342158915
 10
922.0441551766096
 20
569.4933342158915
 10
922.32375424232
 20
569.5304118953847
 10
922.7149654638877
 20
569.586578134822
 10
923.2184902084616
 20
569.586578134822
 10
923.7961892678917
 20
569.586578134822
 10
924.0570978469039
 20
569.4933342158915
 10
924.2622382597254
 20
569.3439051016546
 10
924.4485934065046
 20
569.2136024590992
 10
924.5791803870931
 20
568.9900748534815
 10
924.5791803870931
 20
568.6917853010737
 10
924.5791803870931
 20
568.3188664929572
 10
924.2994486303008
 20
568.0767810917242
 10
923.9453150882262
 20
567.9649983330468
 10
923.9453150882262
 20
567.9649983330468
 10
923.9453150882262
 20
567.9276363155199
 10
923.9453150882262
 20
567.9276363155199
 10
924.2435667288967
 20
567.8344113524587
 10
924.3927115051004
 20
567.5920226573232
 10
924.4859364681625
 20
567.1820072138447
 10
924.5791803870931
 20
566.7158255309288
 10
924.6536011282442
 20
566.548141914978
 10
924.7096157207304
 20
566.4363970680382
 10
924.7096157207304
 20
566.4363970680382
 10
923.9639866190547
 20
566.4363970680382
 10
923.9639866190547
 20
566.4363970680382
 10
923.8707616559931
 20
566.548141914978
 10
923.8148797545887
 20
566.8090694498594
 10
923.7216358356583
 20
567.1820072138447
 10
923.665734978385
 20
567.4987976942617
 10
923.4792660963922
 20
567.6479424704655
 10
923.0880548748242
 20
567.6479424704655
 10
923.0880548748242
 20
567.6479424704655
 10
922.7522895696768
 20
567.6479424704655
 10
922.7522895696768
 20
567.6479424704655
 10
922.7522895696768
 20
567.6479424704655
 10
922.7522895696768
 20
566.4363970680382
 10
922.7522895696768
 20
566.4363970680382
 97
        0
 97
        0
 92
        1
 93
        1
 72
     4
 94
        3
 73
     0
 74
     0
 95
       20
 96
       16
 40
0.0
 40
0.0
 40
0.0
 40
0.0
 40
1.0
 40
1.0
 40
1.0
 40
2.0
 40
2.0
 40
2.0
 40
3.0
 40
3.0
 40
3.0
 40
4.0
 40
4.0
 40
4.0
 40
5.0
 40
5.0
 40
5.0
 40
5.0
 10
922.771131703325
 20
568.1512018328752
 10
922.771131703325
 20
568.1512018328752
 10
923.106461023489
 20
568.1512018328752
 10
923.106461023489
 20
568.1512018328752
 10
923.4979376272212
 20
568.1512018328752
 10
923.8148797545887
 20
568.2817888134635
 10
923.8148797545887
 20
568.5985603380117
 10
923.8148797545887
 20
568.8782920948042
 10
923.6097203858983
 20
569.0644766387637
 10
923.1623239690243
 20
569.0644766387637
 10
922.9760067339826
 20
569.0644766387637
 10
922.8457040914273
 20
569.0456534609842
 10
922.771131703325
 20
569.0273989592705
 10
922.771131703325
 20
569.0273989592705
 10
922.771131703325
 20
568.1512018328752
 10
922.771131703325
 20
568.1512018328752
 97
        0
 97
        0
 75
     2
 76
     1
 98
        0
450
        0
451
        0
460
0.0
461
0.0
452
        1
462
0.0
453
        0
470

  0
ENDBLK
  5
A3BFA
330
A3BE6
100
AcDbEntity
  8
0
100
AcDbBlockEnd
  0
ENDSEC
  0
SECTION
  2
ENTITIES
  0
LINE
  5
A3A08
330
1F
100
AcDbEntity
  8
0
100
AcDbLine
 10
87476.1620454435
 20
-59543.98623258025
 30
0.0
 11
88081.16204544353
 21
-59543.98623258027
 31
0.0
  0
LINE
  5
A3A09
330
1F
100
AcDbEntity
  8
0
100
AcDbLine
 10
88096.16204544351
 20
-59152.58623258027
 30
0.0
 11
88096.16204544351
 21
-59528.98623258027
 31
0.0
  0
LINE
  5
A3A0A
330
1F
100
AcDbEntity
  8
0
100
AcDbLine
 10
87461.1620454435
 20
-59528.98623258026
 30
0.0
 11
87461.1620454435
 21
-59152.58623258024
 31
0.0
  0
LINE
  5
A3A0B
330
1F
100
AcDbEntity
  8
0
100
AcDbLine
 10
87476.1620454435
 20
-59137.58623258024
 30
0.0
 11
88081.16204544353
 21
-59137.58623258027
 31
0.0
  0
DIMENSION
  5
A3A0C
330
1F
100
AcDbEntity
  8
标注
 48
5.0
100
AcDbDimension
280
     0
  2
*D1
 10
88160.92481296955
 20
-59543.98623258027
 30
0.0
 11
88160.92481296958
 21
-59340.78623258026
 31
0.0
 70
   160
 71
     5
 42
406.3999999999941
 73
     0
 74
     0
 75
     0
  3
副本Standard$0
100
AcDbAlignedDimension
 13
88076.16204544354
 23
-59137.58623258027
 33
0.0
 14
88076.1620454435
 24
-59543.98623258027
 34
0.0
 50
90.0
100
AcDbRotatedDimension
1001
ACAD
1000
DSTYLE
1002
{
1070
    49
1040
8.0
1002
}
  0
DIMENSION
  5
A3A0D
330
1F
100
AcDbEntity
  8
标注
 48
5.0
100
AcDbDimension
280
     0
  2
*D2
 10
88096.16204544351
 20
-59619.29957655992
 30
0.0
 11
87778.6620454435
 21
-59619.29957655992
 31
0.0
 70
    32
 71
     5
 42
635.0
 73
     0
 74
     0
 75
     0
  3
副本Standard$0
100
AcDbAlignedDimension
 13
87461.1620454435
 23
-59528.98623258026
 33
0.0
 14
88096.16204544351
 24
-59528.98623258027
 34
0.0
100
AcDbRotatedDimension
1001
ACAD
1000
DSTYLE
1002
{
1070
    49
1040
8.0
1002
}
  0
ARC
  5
A3A0F
330
1F
100
AcDbEntity
  8
0
100
AcDbCircle
 10
87476.1620454435
 20
-59152.58623258024
 30
0.0
 40
15.0
100
AcDbArc
 50
90.0
 51
180.0
  0
ARC
  5
A3A10
330
1F
100
AcDbEntity
  8
0
100
AcDbCircle
 10
88081.16204544353
 20
-59152.58623258027
 30
0.0
 40
15.0
100
AcDbArc
 50
0.0
 51
90.0
  0
ARC
  5
A3A11
330
1F
100
AcDbEntity
  8
0
100
AcDbCircle
 10
88081.16204544353
 20
-59528.98623258027
 30
0.0
 40
15.0
100
AcDbArc
 50
270.0
 51
0.0
  0
ARC
  5
A3A12
330
1F
100
AcDbEntity
  8
0
100
AcDbCircle
 10
87476.1620454435
 20
-59528.98623258026
 30
0.0
 40
15.0
100
AcDbArc
 50
180.0
 51
270.0
  0
INSERT
  5
A3C64
330
1F
100
AcDbEntity
  8
0
100
AcDbBlockReference
  2
1.1
 10
87054.0004079525
 20
-59705.40215342582
 30
1629.18920759858
 41
0.9056848720811803
 42
0.9056848720811803
 43
0.9056848720811803
  0
MTEXT
  5
A3C65
102
{ACAD_XDICTIONARY
360
A3C7C
102
}
330
1F
100
AcDbEntity
  8
0
 48
0.1
100
AcDbMText
 10
87496.03234678867
 20
-59258.59003523102
 30
1629.18920759858
 40
22.12639961839792
 41
568.3107978973716
 46
0.0
 71
     1
 72
     5
  1
\pi208.72574;{\fMontserrat|b0|i0|c0|p0;\H0.56017x;lifewithpearl.com\P\pi233.00346;\H0.72222x;#hometogether}
 73
     1
 44
1.0
1001
ACAD
1000
ACAD_MTEXT_COLUMN_INFO_BEGIN
1070
    75
1070
     2
1070
    79
1070
     0
1070
    76
1070
     1
1070
    78
1070
     0
1070
    48
1040
568.3107978973716
1070
    49
1040
17.21465737619431
1070
    50
1070
     1
1040
57.88938673961816
1000
ACAD_MTEXT_COLUMN_INFO_END
  0
MTEXT
  5
A3C70
330
1F
100
AcDbEntity
  8
0
100
AcDbMText
 10
87486.67860077441
 20
-59393.32132420488
 30
2999.738826889333
 40
5.0
 41
297.9107459949105
 46
0.0
 71
     1
 72
     5
  3
{\fArial|b0|i0|c0|p34;Use the exact outside edge for a flush mount cut:\PThe sink wall is flush to the edge of the countertop opening.\PAny modification will result in a reveal or overhang.\P\PPlease check the actual template against the physical sin
  3
k unit for the most accurate cut!\P\PNOTE:\PDimensions may vary slightly from sink to sink. \PPlease verify the exact size of the sink before cutting. \PThe manufacturer is not responsible for cutting errors.\P\PNOTE:\PLes dimensions peuvent varier l
  1
égèrement d'un dissipateur à couler. \PVérifiez la taille exacte de l'évier avant de couper. \PFabricant n'est pas responsable des erreurs de coupe.}
 73
     1
 44
1.0
  0
MTEXT
  5
A3C71
102
{ACAD_XDICTIONARY
360
A3C72
102
}
330
1F
100
AcDbEntity
  8
0
370
    70
100
AcDbMText
 10
87486.24275974703
 20
-59353.08641126193
 30
2999.738826889333
 40
5.789340739882582
 41
178.9689617700453
 46
31.24283724073952
 71
     1
 72
     1
  1
{\fAbhaya Libre|b0|i0|c0|p0;\H2.41824x;HANA - PMR GEO\P\fMontserrat|b0|i0|c0|p0;\H0.5x;GGSRR2718}
 73
     1
 44
1.0
1001
ACAD
1000
ACAD_MTEXT_DEFINED_HEIGHT_BEGIN
1070
    46
1040
6.041922581081321
1000
ACAD_MTEXT_DEFINED_HEIGHT_END
  0
ENDSEC
  0
SECTION
  2
OBJECTS
  0
DICTIONARY
  5
C
330
0
100
AcDbDictionary
281
     1
  3
ACAD_CIP_PREVIOUS_PRODUCT_INFO
350
A3B01
  3
ACAD_COLOR
350
6C
  3
ACAD_DETAILVIEWSTYLE
350
A3AF2
  3
ACAD_GROUP
350
D
  3
ACAD_LAYOUT
350
1A
  3
ACAD_MATERIAL
350
6B
  3
ACAD_MLEADERSTYLE
350
92808
  3
ACAD_MLINESTYLE
350
17
  3
ACAD_PLOTSETTINGS
350
19
  3
ACAD_PLOTSTYLENAME
350
E
  3
ACAD_SCALELIST
350
927E6
  3
ACAD_SECTIONVIEWSTYLE
350
A3AF0
  3
ACAD_TABLESTYLE
350
FAF
  3
ACAD_VISUALSTYLE
350
927D2
  3
AcadDim
350
100FD
  3
ACDB_RECOMPOSE_DATA
350
A3C7F
  3
AcDbVariableDictionary
350
59
  3
AcDsDecomposeData
350
A3C85
  3
ASE_INDEX_DICTIONARY
350
47AC0
  3
lxx_dict
350
92821
  0
DICTIONARY
  5
9311C
330
8
100
AcDbDictionary
280
     1
281
     1
  0
DICTIONARY
  5
AB
330
2
100
AcDbDictionary
280
     1
281
     1
  3
ACAD_LAYERFILTERS
360
176
  3
ACAD_LAYERSTATES
360
AC
  0
DICTIONARY
  5
92823
330
10
100
AcDbDictionary
280
     1
281
     1
  3
ADSK_XREC_LAYER_RECONCILED
360
92824
  0
DICTIONARY
  5
9282F
330
16DF9
100
AcDbDictionary
280
     1
281
     1
  3
ADSK_XREC_LAYER_RECONCILED
360
92830
  0
DICTIONARY
  5
118B
330
1F
100
AcDbDictionary
280
     1
281
     1
  3
ACAD_SORTENTS
360
118C
  0
DICTIONARY
  5
A3BE7
330
A3BE6
100
AcDbDictionary
280
     1
281
     1
  0
DICTIONARY
  5
A3C7C
330
A3C65
100
AcDbDictionary
280
     1
281
     1
  3
ACAD_MTEXT_2008_RT
360
A3C7D
  0
DICTIONARY
  5
A3C72
330
A3C71
100
AcDbDictionary
280
     1
281
     1
  3
ACAD_MTEXT_2008_RT
360
A3C7E
  0
XRECORD
  5
A3B01
102
{ACAD_REACTORS
330
C
102
}
330
C
100
AcDbXrecord
280
     1
300
ACDMAC
300
2022
300

  0
DICTIONARY
  5
6C
102
{ACAD_REACTORS
330
C
102
}
330
C
100
AcDbDictionary
281
     1
  0
DICTIONARY
  5
A3AF2
102
{ACAD_REACTORS
330
C
102
}
330
C
100
AcDbDictionary
281
     1
  3
Imperial24
350
A3AF3
  3
Metric50
350
A3C5A
  0
DICTIONARY
  5
D
102
{ACAD_REACTORS
330
C
102
}
330
C
100
AcDbDictionary
281
     1
  0
DICTIONARY
  5
1A
102
{ACAD_REACTORS
330
C
102
}
330
C
100
AcDbDictionary
281
     1
  3
Model
350
22
  3
布局1
350
74
  3
布局2
350
79
  0
DICTIONARY
  5
6B
102
{ACAD_REACTORS
330
C
102
}
330
C
100
AcDbDictionary
281
     1
  3
ByBlock
350
927C2
  3
ByLayer
350
927BA
  3
Global
350
927CA
  0
DICTIONARY
  5
92808
102
{ACAD_REACTORS
330
C
102
}
330
C
100
AcDbDictionary
281
     1
  3
Standard
350
92809
  0
DICTIONARY
  5
17
102
{ACAD_REACTORS
330
C
102
}
330
C
100
AcDbDictionary
281
     1
  3
Standard
350
18
  0
DICTIONARY
  5
19
102
{ACAD_REACTORS
330
C
102
}
330
C
100
AcDbDictionary
281
     1
  0
ACDBDICTIONARYWDFLT
  5
E
102
{ACAD_REACTORS
330
C
102
}
330
C
100
AcDbDictionary
281
     1
  3
Normal
350
F
100
AcDbDictionaryWithDefault
340
F
  0
DICTIONARY
  5
927E6
102
{ACAD_REACTORS
330
C
102
}
330
C
100
AcDbDictionary
281
     1
  3
A0
350
927E7
  3
A1
350
927E8
  3
A2
350
927E9
  3
A3
350
927EA
  3
A4
350
927EB
  3
A5
350
927EC
  3
A6
350
927ED
  3
A7
350
927EE
  3
A8
350
927EF
  3
A9
350
927F0
  3
B0
350
927F1
  3
B1
350
927F2
  3
B2
350
927F3
  3
B3
350
927F4
  3
B4
350
927F5
  3
B5
350
927F6
  3
B6
350
927F7
  3
B7
350
927F8
  3
B8
350
927F9
  3
B9
350
927FA
  3
C0
350
927FB
  3
C1
350
927FC
  3
C2
350
927FD
  3
C3
350
927FE
  3
C4
350
927FF
  3
C5
350
92800
  3
C6
350
92801
  3
C7
350
92802
  3
C8
350
92803
  3
C9
350
92804
  3
D0
350
92805
  3
D1
350
92806
  3
D2
350
92807
  0
DICTIONARY
  5
A3AF0
102
{ACAD_REACTORS
330
C
102
}
330
C
100
AcDbDictionary
281
     1
  3
Imperial24
350
A3AF1
  3
Metric50
350
A3C59
  0
DICTIONARY
  5
FAF
102
{ACAD_REACTORS
330
C
102
}
330
C
100
AcDbDictionary
281
     1
  3
Standard
350
FB0
  0
DICTIONARY
  5
927D2
102
{ACAD_REACTORS
330
C
102
}
330
C
100
AcDbDictionary
281
     1
  3
2dWireframe
350
927D8
  3
3D Hidden
350
927DA
  3
3dWireframe
350
927D9
  3
Basic
350
927D7
  3
Brighten
350
927DE
  3
ColorChange
350
927E2
  3
Conceptual
350
927DB
  3
Dim
350
927DD
  3
EdgeColorOff
350
927E5
  3
Facepattern
350
927E1
  3
Flat
350
927D3
  3
FlatWithEdges
350
927D4
  3
Gouraud
350
927D5
  3
GouraudWithEdges
350
927D6
  3
Hidden
350
A3AEA
  3
JitterOff
350
927E3
  3
Linepattern
350
927E0
  3
OverhangOff
350
927E4
  3
Realistic
350
927DC
  3
Shaded
350
A3AEF
  3
Shaded with edges
350
A3AEE
  3
Shades of Gray
350
A3AEB
  3
Sketchy
350
A3AEC
  3
Thicken
350
927DF
  3
Wireframe
350
A3AE9
  3
X-Ray
350
A3AED
  0
XRECORD
  5
100FD
102
{ACAD_REACTORS
330
C
102
}
330
C
100
AcDbXrecord
280
     1
 90
   990106
  3

 60
     0
 61
     0
 62
     1
 63
     3
 64
     0
 65
     0
 66
     0
 67
     3
 68
     1
 69
     0
 70
     0
 71
     0
 72
     0
 40
0.0
170
     0
  0
XRECORD
  5
A3C7F
102
{ACAD_REACTORS
330
C
102
}
330
C
100
AcDbXrecord
280
     1
 90
        1
330
FB0
330
A3C65
330
A3C71
  0
DICTIONARY
  5
59
102
{ACAD_REACTORS
330
C
102
}
330
C
100
AcDbDictionary
281
     1
  3
CANNOSCALE
350
931C0
  3
CMLEADERSTYLE
350
931BF
  3
CTABLESTYLE
350
100D
  3
CVIEWDETAILSTYLE
350
A3B02
  3
CVIEWSECTIONSTYLE
350
A3B03
  3
DIMASSOC
350
5A
  3
HIDETEXT
350
5E
  3
INDEXCTL
350
931C2
  3
LAYEREVAL
350
A3C18
  3
LAYERNOTIFY
350
A3C19
  3
LIGHTINGUNITS
350
A3C17
  3
MSLTSCALE
350
A3C16
  3
SORTENTS
350
931C1
  0
DICTIONARY
  5
A3C85
102
{ACAD_REACTORS
330
C
102
}
330
C
100
AcDbDictionary
281
     1
  3
AcDsRecords
350
A3C87
  3
AcDsSchemas
350
A3C86
1001
ACAD
1070
     2
  0
DICTIONARY
  5
47AC0
102
{ACAD_REACTORS
330
C
102
}
330
C
100
AcDbDictionary
281
     1
  3
ASEBlockHierarchyIndexRecord
350
47AC1
1001
DCO15
1040
1682246491.827999
  0
DICTIONARY
  5
92821
102
{ACAD_REACTORS
330
C
102
}
330
C
100
AcDbDictionary
281
     1
  3
lxx_dimth
350
92822
  0
DICTIONARY
  5
176
102
{ACAD_REACTORS
330
AB
102
}
330
AB
100
AcDbDictionary
281
     1
  0
DICTIONARY
  5
AC
102
{ACAD_REACTORS
330
AB
102
}
330
AB
100
AcDbDictionary
281
     1
  0
XRECORD
  5
92824
102
{ACAD_REACTORS
330
92823
102
}
330
92823
100
AcDbXrecord
280
     1
290
     1
  0
XRECORD
  5
92830
102
{ACAD_REACTORS
330
9282F
102
}
330
9282F
100
AcDbXrecord
280
     1
290
     1
  0
SORTENTSTABLE
  5
118C
102
{ACAD_REACTORS
330
118B
102
}
330
118B
100
AcDbSortentsTable
330
1F
  0
XRECORD
  5
A3C7D
102
{ACAD_REACTORS
330
A3C7C
102
}
330
A3C7C
100
AcDbXrecord
280
     1
 40
486289.0
  1
\pxqc;{\fMontserrat|b0|i0|c0|p0;\H0.56017x;lifewithpearl.com\P\H0.72222x;#hometogether}
  0
XRECORD
  5
A3C7E
102
{ACAD_REACTORS
330
A3C72
102
}
330
A3C72
100
AcDbXrecord
280
     1
 40
382217.0
  1
\pxql;{\fAbhaya Libre|b0|i0|c0|p0;\H2.41824x;HANA - PMR GEO\P\fMontserrat|b0|i0|c0|p0;\H0.5x;GGSRR2718}
  0
ACDBDETAILVIEWSTYLE
  5
A3AF3
102
{ACAD_XDICTIONARY
360
A3CBE
102
}
102
{ACAD_REACTORS
330
A3AF2
102
}
330
A3AF2
100
AcDbModelDocViewStyle
 70
     0
  3
Imperial24
290
     0
100
AcDbDetailViewStyle
 70
     0
 71
     0
 90
        3
 71
     1
340
11
 62
   256
 40
0.24
340
0
 62
   256
 40
0.24
300

 40
0.36
280
     3
 71
     2
340
16
 90
       25
 62
   256
 71
     3
340
11
 62
   256
 40
0.24
 90
        1
 40
0.75
 90
        1
300
%<\AcVar ViewType \f "%tc1">% %<\AcVar ViewDetailId>%\PSCALE %<\AcVar ViewScale \f "%sn">%
 71
     4
340
16
 90
       25
 62
   256
340
16
 90
       25
 62
   256
280
     0
  0
ACDBDETAILVIEWSTYLE
  5
A3C5A
102
{ACAD_XDICTIONARY
360
A3CC2
102
}
102
{ACAD_REACTORS
330
A3AF2
102
}
330
A3AF2
100
AcDbModelDocViewStyle
 70
     0
  3
Metric50
290
     0
100
AcDbDetailViewStyle
 70
     0
 71
     0
 90
        3
 71
     1
340
11
 62
   256
 40
5.0
340
0
 62
   256
 40
5.0
300

 40
0.0
280
     1
 71
     2
340
16
 90
       25
 62
   256
 71
     3
340
11
 62
   256
 40
5.0
 90
        0
 40
15.0
 90
        1
300
%<\AcVar ViewDetailId>% (%<\AcVar ViewScale \f "%sn">%)
 71
     4
340
16
 90
       25
 62
   256
340
16
 90
       25
 62
   256
280
     0
  0
LAYOUT
  5
22
102
{ACAD_REACTORS
330
1A
102
}
330
1A
100
AcDbPlotSettings
  1

  2
\\192.168.1.64\Canon LBP2900
  4
A4
  6

 40
5.873749732971191
 41
6.805061340332031
 42
5.873748779296875
 43
4.857757568359375
 44
209.9733276367186
 45
296.9259948730469
 46
-5.887085437774657
 47
-5.868412017822262
 48
78903.01075940157
 49
-60604.1840875369
140
81279.01075940156
141
-58924.18408753691
142
1.0
143
8.0
 70
  3748
 72
     1
 73
     1
 74
     4
  7
monochrome.ctb
 75
    16
147
1.0
 76
     1
 77
     2
 78
   300
148
-78903.01075940157
149
60604.1840875369
100
AcDbLayout
  1
Model
 70
     1
 71
     0
 10
0.0
 20
0.0
 11
12.0
 21
9.0
 12
0.0
 22
0.0
 32
0.0
 14
0.0
 24
0.0
 34
0.0
 15
0.0
 25
0.0
 35
0.0
146
0.0
 13
0.0
 23
0.0
 33
0.0
 16
1.0
 26
0.0
 36
0.0
 17
0.0
 27
1.0
 37
0.0
 76
     0
330
1F
331
927B8
1001
ACAD_PSEXT
1000
\\192.168.1.64\Canon LBP2900
1000
Canon LBP2900
1000
\\192.168.1.64
1000

1070
     0
  0
LAYOUT
  5
74
102
{ACAD_REACTORS
330
1A
102
}
330
1A
100
AcDbPlotSettings
  1

  2
\\ADSCCNDC1\hq601xrx1
  4

  6

 40
0.0
 41
0.0
 42
0.0
 43
0.0
 44
0.0
 45
0.0
 46
0.0
 47
0.0
 48
0.0
 49
0.0
140
0.0
141
0.0
142
1.0
143
1.0
 70
   688
 72
     0
 73
     0
 74
     5
  7
monochrome.ctb
 75
    16
147
1.0
 76
     0
 77
     2
 78
   300
148
0.0
149
0.0
100
AcDbLayout
  1
布局1
 70
     1
 71
     1
 10
0.0
 20
0.0
 11
12.0
 21
9.0
 12
0.0
 22
0.0
 32
0.0
 14
0.0
 24
0.0
 34
0.0
 15
0.0
 25
0.0
 35
0.0
146
0.0
 13
0.0
 23
0.0
 33
0.0
 16
1.0
 26
0.0
 36
0.0
 17
0.0
 27
1.0
 37
0.0
 76
     0
330
73
  0
LAYOUT
  5
79
102
{ACAD_REACTORS
330
1A
102
}
330
1A
100
AcDbPlotSettings
  1

  2
\\ADSCCNDC1\hq601xrx1
  4

  6

 40
0.0
 41
0.0
 42
0.0
 43
0.0
 44
0.0
 45
0.0
 46
0.0
 47
0.0
 48
0.0
 49
0.0
140
0.0
141
0.0
142
1.0
143
1.0
 70
   688
 72
     0
 73
     0
 74
     5
  7
monochrome.ctb
 75
    16
147
1.0
 76
     0
 77
     2
 78
   300
148
0.0
149
0.0
100
AcDbLayout
  1
布局2
 70
     1
 71
     2
 10
0.0
 20
0.0
 11
12.0
 21
9.0
 12
0.0
 22
0.0
 32
0.0
 14
0.0
 24
0.0
 34
0.0
 15
0.0
 25
0.0
 35
0.0
146
0.0
 13
0.0
 23
0.0
 33
0.0
 16
1.0
 26
0.0
 36
0.0
 17
0.0
 27
1.0
 37
0.0
 76
     0
330
78
  0
MATERIAL
  5
927C2
102
{ACAD_XDICTIONARY
360
927C3
102
}
102
{ACAD_REACTORS
330
6B
102
}
330
6B
100
AcDbMaterial
  1
ByBlock
 72
     0
 43
0.0208333333333333
 43
0.0
 43
0.0
 43
0.0
 43
0.0
 43
0.0208333333333333
 43
0.0
 43
0.0
 43
0.0
 43
0.0
 43
1.0
 43
0.0
 43
0.0
 43
0.0
 43
0.0
 43
1.0
 77
     0
 47
0.0208333333333333
 47
0.0
 47
0.0
 47
0.0
 47
0.0
 47
0.0208333333333333
 47
0.0
 47
0.0
 47
0.0
 47
0.0
 47
1.0
 47
0.0
 47
0.0
 47
0.0
 47
0.0
 47
1.0
171
     0
 49
0.0208333333333333
 49
0.0
 49
0.0
 49
0.0
 49
0.0
 49
0.0208333333333333
 49
0.0
 49
0.0
 49
0.0
 49
0.0
 49
1.0
 49
0.0
 49
0.0
 49
0.0
 49
0.0
 49
1.0
175
     0
142
0.0208333333333333
142
0.0
142
0.0
142
0.0
142
0.0
142
0.0208333333333333
142
0.0
142
0.0
142
0.0
142
0.0
142
1.0
142
0.0
142
0.0
142
0.0
142
0.0
142
1.0
179
     0
144
0.0208333333333333
144
0.0
144
0.0
144
0.0
144
0.0
144
0.0208333333333333
144
0.0
144
0.0
144
0.0
144
0.0
144
1.0
144
0.0
144
0.0
144
0.0
144
0.0
144
1.0
147
0.0208333333333333
147
0.0
147
0.0
147
0.0
147
0.0
147
0.0208333333333333
147
0.0
147
0.0
147
0.0
147
0.0
147
1.0
147
0.0
147
0.0
147
0.0
147
0.0
147
1.0
  0
MATERIAL
  5
927BA
102
{ACAD_XDICTIONARY
360
927BB
102
}
102
{ACAD_REACTORS
330
6B
102
}
330
6B
100
AcDbMaterial
  1
ByLayer
 72
     0
 43
0.0208333333333333
 43
0.0
 43
0.0
 43
0.0
 43
0.0
 43
0.0208333333333333
 43
0.0
 43
0.0
 43
0.0
 43
0.0
 43
1.0
 43
0.0
 43
0.0
 43
0.0
 43
0.0
 43
1.0
 77
     0
 47
0.0208333333333333
 47
0.0
 47
0.0
 47
0.0
 47
0.0
 47
0.0208333333333333
 47
0.0
 47
0.0
 47
0.0
 47
0.0
 47
1.0
 47
0.0
 47
0.0
 47
0.0
 47
0.0
 47
1.0
171
     0
 49
0.0208333333333333
 49
0.0
 49
0.0
 49
0.0
 49
0.0
 49
0.0208333333333333
 49
0.0
 49
0.0
 49
0.0
 49
0.0
 49
1.0
 49
0.0
 49
0.0
 49
0.0
 49
0.0
 49
1.0
175
     0
142
0.0208333333333333
142
0.0
142
0.0
142
0.0
142
0.0
142
0.0208333333333333
142
0.0
142
0.0
142
0.0
142
0.0
142
1.0
142
0.0
142
0.0
142
0.0
142
0.0
142
1.0
179
     0
144
0.0208333333333333
144
0.0
144
0.0
144
0.0
144
0.0
144
0.0208333333333333
144
0.0
144
0.0
144
0.0
144
0.0
144
1.0
144
0.0
144
0.0
144
0.0
144
0.0
144
1.0
147
0.0208333333333333
147
0.0
147
0.0
147
0.0
147
0.0
147
0.0208333333333333
147
0.0
147
0.0
147
0.0
147
0.0
147
1.0
147
0.0
147
0.0
147
0.0
147
0.0
147
1.0
  0
MATERIAL
  5
927CA
102
{ACAD_XDICTIONARY
360
927CB
102
}
102
{ACAD_REACTORS
330
6B
102
}
330
6B
100
AcDbMaterial
  1
Global
 72
     0
 43
0.0208333333333333
 43
0.0
 43
0.0
 43
0.0
 43
0.0
 43
0.0208333333333333
 43
0.0
 43
0.0
 43
0.0
 43
0.0
 43
1.0
 43
0.0
 43
0.0
 43
0.0
 43
0.0
 43
1.0
 77
     0
 47
0.0208333333333333
 47
0.0
 47
0.0
 47
0.0
 47
0.0
 47
0.0208333333333333
 47
0.0
 47
0.0
 47
0.0
 47
0.0
 47
1.0
 47
0.0
 47
0.0
 47
0.0
 47
0.0
 47
1.0
171
     0
 49
0.0208333333333333
 49
0.0
 49
0.0
 49
0.0
 49
0.0
 49
0.0208333333333333
 49
0.0
 49
0.0
 49
0.0
 49
0.0
 49
1.0
 49
0.0
 49
0.0
 49
0.0
 49
0.0
 49
1.0
175
     0
142
0.0208333333333333
142
0.0
142
0.0
142
0.0
142
0.0
142
0.0208333333333333
142
0.0
142
0.0
142
0.0
142
0.0
142
1.0
142
0.0
142
0.0
142
0.0
142
0.0
142
1.0
179
     0
144
0.0208333333333333
144
0.0
144
0.0
144
0.0
144
0.0
144
0.0208333333333333
144
0.0
144
0.0
144
0.0
144
0.0
144
1.0
144
0.0
144
0.0
144
0.0
144
0.0
144
1.0
147
0.0208333333333333
147
0.0
147
0.0
147
0.0
147
0.0
147
0.0208333333333333
147
0.0
147
0.0
147
0.0
147
0.0
147
1.0
147
0.0
147
0.0
147
0.0
147
0.0
147
1.0
  0
MLEADERSTYLE
  5
92809
102
{ACAD_REACTORS
330
92808
102
}
330
92808
100
AcDbMLeaderStyle
179
     2
170
     2
171
     1
172
     0
 90
        2
 40
0.0
 41
0.0
173
     1
 91
-1056964608
340
14
 92
       -2
290
     1
 42
0.09
291
     1
 43
0.36
  3
Standard
 44
0.18
300

342
11
174
     1
178
     6
175
     1
176
     0
 93
-1056964608
 45
0.18
292
     0
297
     0
 46
0.18
 94
-1056964608
 47
1.0
 49
1.0
140
1.0
293
     1
141
0.0
294
     1
177
     0
142
1.0
295
     0
296
     0
143
0.125
271
     0
272
     9
273
     9
1001
ACAD_MLEADERVER
1070
     2
  0
MLINESTYLE
  5
18
102
{ACAD_REACTORS
330
17
102
}
330
17
100
AcDbMlineStyle
  2
STANDARD
 70
     0
  3

 62
   256
 51
90.0
 52
90.0
 71
     2
 49
0.5
 62
   256
  6
BYLAYER
 49
-0.5
 62
   256
  6
BYLAYER
  0
ACDBPLACEHOLDER
  5
F
102
{ACAD_REACTORS
330
E
102
}
330
E
  0
SCALE
  5
927E7
102
{ACAD_REACTORS
330
927E6
102
}
330
927E6
100
AcDbScale
 70
     0
300
1:1
140
1.0
141
1.0
290
     1
  0
SCALE
  5
927E8
102
{ACAD_REACTORS
330
927E6
102
}
330
927E6
100
AcDbScale
 70
     0
300
1:2
140
1.0
141
2.0
290
     0
  0
SCALE
  5
927E9
102
{ACAD_REACTORS
330
927E6
102
}
330
927E6
100
AcDbScale
 70
     0
300
1:4
140
1.0
141
4.0
290
     0
  0
SCALE
  5
927EA
102
{ACAD_REACTORS
330
927E6
102
}
330
927E6
100
AcDbScale
 70
     0
300
1:5
140
1.0
141
5.0
290
     0
  0
SCALE
  5
927EB
102
{ACAD_REACTORS
330
927E6
102
}
330
927E6
100
AcDbScale
 70
     0
300
1:8
140
1.0
141
8.0
290
     0
  0
SCALE
  5
927EC
102
{ACAD_REACTORS
330
927E6
102
}
330
927E6
100
AcDbScale
 70
     0
300
1:10
140
1.0
141
10.0
290
     0
  0
SCALE
  5
927ED
102
{ACAD_REACTORS
330
927E6
102
}
330
927E6
100
AcDbScale
 70
     0
300
1:16
140
1.0
141
16.0
290
     0
  0
SCALE
  5
927EE
102
{ACAD_REACTORS
330
927E6
102
}
330
927E6
100
AcDbScale
 70
     0
300
1:20
140
1.0
141
20.0
290
     0
  0
SCALE
  5
927EF
102
{ACAD_REACTORS
330
927E6
102
}
330
927E6
100
AcDbScale
 70
     0
300
1:30
140
1.0
141
30.0
290
     0
  0
SCALE
  5
927F0
102
{ACAD_REACTORS
330
927E6
102
}
330
927E6
100
AcDbScale
 70
     0
300
1:40
140
1.0
141
40.0
290
     0
  0
SCALE
  5
927F1
102
{ACAD_REACTORS
330
927E6
102
}
330
927E6
100
AcDbScale
 70
     0
300
1:50
140
1.0
141
50.0
290
     0
  0
SCALE
  5
927F2
102
{ACAD_REACTORS
330
927E6
102
}
330
927E6
100
AcDbScale
 70
     0
300
1:100
140
1.0
141
100.0
290
     0
  0
SCALE
  5
927F3
102
{ACAD_REACTORS
330
927E6
102
}
330
927E6
100
AcDbScale
 70
     0
300
2:1
140
2.0
141
1.0
290
     0
  0
SCALE
  5
927F4
102
{ACAD_REACTORS
330
927E6
102
}
330
927E6
100
AcDbScale
 70
     0
300
4:1
140
4.0
141
1.0
290
     0
  0
SCALE
  5
927F5
102
{ACAD_REACTORS
330
927E6
102
}
330
927E6
100
AcDbScale
 70
     0
300
8:1
140
8.0
141
1.0
290
     0
  0
SCALE
  5
927F6
102
{ACAD_REACTORS
330
927E6
102
}
330
927E6
100
AcDbScale
 70
     0
300
10:1
140
10.0
141
1.0
290
     0
  0
SCALE
  5
927F7
102
{ACAD_REACTORS
330
927E6
102
}
330
927E6
100
AcDbScale
 70
     0
300
100:1
140
100.0
141
1.0
290
     0
  0
SCALE
  5
927F8
102
{ACAD_REACTORS
330
927E6
102
}
330
927E6
100
AcDbScale
 70
     0
300
1/128" = 1'-0"
140
0.0078125
141
12.0
290
     0
  0
SCALE
  5
927F9
102
{ACAD_REACTORS
330
927E6
102
}
330
927E6
100
AcDbScale
 70
     0
300
1/64" = 1'-0"
140
0.015625
141
12.0
290
     0
  0
SCALE
  5
927FA
102
{ACAD_REACTORS
330
927E6
102
}
330
927E6
100
AcDbScale
 70
     0
300
1/32" = 1'-0"
140
0.03125
141
12.0
290
     0
  0
SCALE
  5
927FB
102
{ACAD_REACTORS
330
927E6
102
}
330
927E6
100
AcDbScale
 70
     0
300
1/16" = 1'-0"
140
0.0625
141
12.0
290
     0
  0
SCALE
  5
927FC
102
{ACAD_REACTORS
330
927E6
102
}
330
927E6
100
AcDbScale
 70
     0
300
3/32" = 1'-0"
140
0.09375
141
12.0
290
     0
  0
SCALE
  5
927FD
102
{ACAD_REACTORS
330
927E6
102
}
330
927E6
100
AcDbScale
 70
     0
300
1/8" = 1'-0"
140
0.125
141
12.0
290
     0
  0
SCALE
  5
927FE
102
{ACAD_REACTORS
330
927E6
102
}
330
927E6
100
AcDbScale
 70
     0
300
3/16" = 1'-0"
140
0.1875
141
12.0
290
     0
  0
SCALE
  5
927FF
102
{ACAD_REACTORS
330
927E6
102
}
330
927E6
100
AcDbScale
 70
     0
300
1/4" = 1'-0"
140
0.25
141
12.0
290
     0
  0
SCALE
  5
92800
102
{ACAD_REACTORS
330
927E6
102
}
330
927E6
100
AcDbScale
 70
     0
300
3/8" = 1'-0"
140
0.375
141
12.0
290
     0
  0
SCALE
  5
92801
102
{ACAD_REACTORS
330
927E6
102
}
330
927E6
100
AcDbScale
 70
     0
300
1/2" = 1'-0"
140
0.5
141
12.0
290
     0
  0
SCALE
  5
92802
102
{ACAD_REACTORS
330
927E6
102
}
330
927E6
100
AcDbScale
 70
     0
300
3/4" = 1'-0"
140
0.75
141
12.0
290
     0
  0
SCALE
  5
92803
102
{ACAD_REACTORS
330
927E6
102
}
330
927E6
100
AcDbScale
 70
     0
300
1" = 1'-0"
140
1.0
141
12.0
290
     0
  0
SCALE
  5
92804
102
{ACAD_REACTORS
330
927E6
102
}
330
927E6
100
AcDbScale
 70
     0
300
1-1/2" = 1'-0"
140
1.5
141
12.0
290
     0
  0
SCALE
  5
92805
102
{ACAD_REACTORS
330
927E6
102
}
330
927E6
100
AcDbScale
 70
     0
300
3" = 1'-0"
140
3.0
141
12.0
290
     0
  0
SCALE
  5
92806
102
{ACAD_REACTORS
330
927E6
102
}
330
927E6
100
AcDbScale
 70
     0
300
6" = 1'-0"
140
6.0
141
12.0
290
     0
  0
SCALE
  5
92807
102
{ACAD_REACTORS
330
927E6
102
}
330
927E6
100
AcDbScale
 70
     0
300
1'-0" = 1'-0"
140
12.0
141
12.0
290
     0
  0
ACDBSECTIONVIEWSTYLE
  5
A3AF1
102
{ACAD_XDICTIONARY
360
A3CBC
102
}
102
{ACAD_REACTORS
330
A3AF0
102
}
330
A3AF0
100
AcDbModelDocViewStyle
 70
     0
  3
Imperial24
290
     0
100
AcDbSectionViewStyle
 70
     0
 71
     0
 90
       78
 71
     1
340
11
 62
   256
 40
0.24
340
0
340
0
 62
   256
 40
0.24
300
I, O, Q, S, X, Z
 40
0.48
 90
        3
 40
0.18
 90
        1
 71
     2
340
16
 90
       25
 62
   256
340
16
 90
       50
 62
   256
 40
0.24
 40
0.0
 40
0.24
 71
     3
340
11
 62
   256
 40
0.24
 90
        1
 40
0.75
 90
        1
300
%<\AcVar ViewType \f "%tc1">% %<\AcVar ViewSectionStartId>%-%<\AcVar ViewSectionEndId>%\PSCALE %<\AcVar ViewScale \f "%sn">%
 71
     4
 62
   256
 62
   257
300
ANSI31
 40
1.0
 90
        0
290
     0
290
     0
 90
        6
 40
0.0
 40
1.570796326794896
 40
0.2617993877991494
 40
1.308996938995747
 40
-0.2617993877991494
 40
1.832595714594044
  0
ACDBSECTIONVIEWSTYLE
  5
A3C59
102
{ACAD_XDICTIONARY
360
A3CC0
102
}
102
{ACAD_REACTORS
330
A3AF0
102
}
330
A3AF0
100
AcDbModelDocViewStyle
 70
     0
  3
Metric50
290
     0
100
AcDbSectionViewStyle
 70
     0
 71
     0
 90
      102
 71
     1
340
11
 62
   256
 40
5.0
340
0
340
0
 62
   256
 40
5.0
300
I, O, Q, S, X, Z
 40
10.0
 90
        0
 40
2.5
 90
        0
 71
     2
340
16
 90
       25
 62
   256
340
16
 90
       50
 62
   256
 40
5.0
 40
2.5
 40
5.0
 71
     3
340
11
 62
   256
 40
5.0
 90
        0
 40
15.0
 90
        1
300
%<\AcVar ViewSectionStartId>%-%<\AcVar ViewSectionEndId>% (%<\AcVar ViewScale \f "%sn">%)
 71
     4
 62
   256
 62
   257
300
ANSI31
 40
1.0
 90
        0
290
     0
290
     0
 90
        6
 40
0.0
 40
1.570796326794896
 40
0.2617993877991494
 40
1.308996938995747
 40
-0.2617993877991494
 40
1.832595714594046
  0
TABLESTYLE
  5
FB0
102
{ACAD_XDICTIONARY
360
93116
102
}
102
{ACAD_REACTORS
330
FAF
102
}
330
FAF
100
AcDbTableStyle
280
     0
  3
Standard
 70
     0
 71
     0
 40
0.06
 41
0.06
280
     0
281
     0
  7
Standard
140
0.18
170
     2
 62
     0
 63
     7
283
     0
 90
        4
 91
        0
  1

274
    -2
284
     1
 64
     0
275
    -2
285
     1
 65
     0
276
    -2
286
     1
 66
     0
277
    -2
287
     1
 67
     0
278
    -2
288
     1
 68
     0
279
    -2
289
     1
 69
     0
  7
Standard
140
0.25
170
     5
 62
     0
 63
     7
283
     0
 90
        4
 91
        0
  1

274
    -2
284
     1
 64
     0
275
    -2
285
     1
 65
     0
276
    -2
286
     1
 66
     0
277
    -2
287
     1
 67
     0
278
    -2
288
     1
 68
     0
279
    -2
289
     1
 69
     0
  7
Standard
140
0.18
170
     5
 62
     0
 63
     7
283
     0
 90
        4
 91
        0
  1

274
    -2
284
     1
 64
     0
275
    -2
285
     1
 65
     0
276
    -2
286
     1
 66
     0
277
    -2
287
     1
 67
     0
278
    -2
288
     1
 68
     0
279
    -2
289
     1
 69
     0
  0
VISUALSTYLE
  5
927D8
102
{ACAD_XDICTIONARY
360
A3C92
102
}
102
{ACAD_REACTORS
330
927D2
102
}
330
927D2
100
AcDbVisualStyle
  2

 70
     4
177
     2
291
     0
 71
     0
176
     1
 72
     2
176
     1
 73
     0
176
     1
 90
        0
176
     1
 40
0.6
176
     1
 41
30.0
176
     1
 63
     7
176
     1
 74
     1
176
     1
 91
        4
176
     1
 64
     7
176
     1
 65
   257
176
     1
 75
     1
176
     1
175
     1
176
     1
 42
1.0
176
     1
 92
        0
176
     1
 66
   257
176
     1
 43
1.0
176
     1
 76
     1
176
     1
 77
     6
176
     1
 78
     2
176
     1
 67
     7
176
     1
 79
     5
176
     1
170
     0
176
     1
171
     0
176
     1
290
     0
176
     1
 93
        1
176
     1
 44
0.0
176
     1
173
     0
176
     1
1001
ACAD
1000
AcDbSavedByObjectVersion
1070
     0
  0
VISUALSTYLE
  5
927DA
102
{ACAD_XDICTIONARY
360
A3C96
102
}
102
{ACAD_REACTORS
330
927D2
102
}
330
927D2
100
AcDbVisualStyle
  2

 70
     6
177
     2
291
     0
 71
     1
176
     1
 72
     2
176
     1
 73
     2
176
     1
 90
        0
176
     1
 40
0.6
176
     1
 41
30.0
176
     1
 63
     7
176
     1
 74
     2
176
     1
 91
        2
176
     1
 64
     7
176
     1
 65
   257
176
     1
 75
     2
176
     1
175
     1
176
     1
 42
179.0
176
     1
 92
        0
176
     1
 66
   257
176
     1
 43
1.0
176
     1
 76
     1
176
     1
 77
     6
176
     1
 78
     2
176
     1
 67
     7
176
     1
 79
     3
176
     1
170
     0
176
     1
171
     0
176
     1
290
     0
176
     1
 93
        1
176
     1
 44
0.0
176
     1
173
     0
176
     1
1001
ACAD
1000
AcDbSavedByObjectVersion
1070
     0
  0
VISUALSTYLE
  5
927D9
102
{ACAD_XDICTIONARY
360
A3C94
102
}
102
{ACAD_REACTORS
330
927D2
102
}
330
927D2
100
AcDbVisualStyle
  2

 70
     5
177
     2
291
     0
 71
     0
176
     1
 72
     2
176
     1
 73
     0
176
     1
 90
        0
176
     1
 40
0.6
176
     1
 41
30.0
176
     1
 63
     7
176
     1
 74
     1
176
     1
 91
        4
176
     1
 64
     7
176
     1
 65
   257
176
     1
 75
     1
176
     1
175
     1
176
     1
 42
1.0
176
     1
 92
        0
176
     1
 66
   257
176
     1
 43
1.0
176
     1
 76
     1
176
     1
 77
     6
176
     1
 78
     2
176
     1
 67
     7
176
     1
 79
     5
176
     1
170
     0
176
     1
171
     0
176
     1
290
     0
176
     1
 93
        1
176
     1
 44
0.0
176
     1
173
     0
176
     1
1001
ACAD
1000
AcDbSavedByObjectVersion
1070
     0
  0
VISUALSTYLE
  5
927D7
102
{ACAD_XDICTIONARY
360
A3C90
102
}
102
{ACAD_REACTORS
330
927D2
102
}
330
927D2
100
AcDbVisualStyle
  2

 70
     7
177
     2
291
     1
 71
     1
176
     1
 72
     0
176
     1
 73
     1
176
     1
 90
        0
176
     1
 40
0.6
176
     1
 41
30.0
176
     1
 63
     7
176
     1
 74
     0
176
     1
 91
        4
176
     1
 64
     7
176
     1
 65
   257
176
     1
 75
     1
176
     1
175
     1
176
     1
 42
1.0
176
     1
 92
        8
176
     1
 66
     7
176
     1
 43
1.0
176
     1
 76
     1
176
     1
 77
     6
176
     1
 78
     2
176
     1
 67
     7
176
     1
 79
     5
176
     1
170
     0
176
     1
171
     0
176
     1
290
     0
176
     1
 93
        1
176
     1
 44
0.0
176
     1
173
     0
176
     1
1001
ACAD
1000
AcDbSavedByObjectVersion
1070
     0
  0
VISUALSTYLE
  5
927DE
102
{ACAD_XDICTIONARY
360
A3C9E
102
}
102
{ACAD_REACTORS
330
927D2
102
}
330
927D2
100
AcDbVisualStyle
  2

 70
    12
177
     2
291
     1
 71
     2
176
     1
 72
     2
176
     1
 73
     0
176
     1
 90
        0
176
     1
 40
0.6
176
     1
 41
30.0
176
     1
 63
     7
176
     1
 74
     1
176
     1
 91
        4
176
     1
 64
     7
176
     1
 65
   257
176
     1
 75
     1
176
     1
175
     1
176
     1
 42
1.0
176
     1
 92
        8
176
     1
 66
     7
176
     1
 43
1.0
176
     1
 76
     1
176
     1
 77
     6
176
     1
 78
     2
176
     1
 67
     7
176
     1
 79
     5
176
     1
170
     0
176
     1
171
     0
176
     1
290
     0
176
     1
 93
        1
176
     1
 44
50.0
176
     1
173
     0
176
     1
1001
ACAD
1000
AcDbSavedByObjectVersion
1070
     0
  0
VISUALSTYLE
  5
927E2
102
{ACAD_XDICTIONARY
360
A3CA6
102
}
102
{ACAD_REACTORS
330
927D2
102
}
330
927D2
100
AcDbVisualStyle
  2

 70
    16
177
     2
291
     1
 71
     2
176
     1
 72
     2
176
     1
 73
     3
176
     1
 90
        0
176
     1
 40
0.6
176
     1
 41
30.0
176
     1
 63
     8
176
     1
 74
     1
176
     1
 91
        4
176
     1
 64
     7
176
     1
 65
   257
176
     1
 75
     1
176
     1
175
     1
176
     1
 42
1.0
176
     1
 92
        8
176
     1
 66
     8
176
     1
 43
1.0
176
     1
 76
     1
176
     1
 77
     6
176
     1
 78
     2
176
     1
 67
     7
176
     1
 79
     5
176
     1
170
     0
176
     1
171
     0
176
     1
290
     0
176
     1
 93
        1
176
     1
 44
0.0
176
     1
173
     0
176
     1
1001
ACAD
1000
AcDbSavedByObjectVersion
1070
     0
  0
VISUALSTYLE
  5
927DB
102
{ACAD_XDICTIONARY
360
A3C98
102
}
102
{ACAD_REACTORS
330
927D2
102
}
330
927D2
100
AcDbVisualStyle
  2

 70
     9
177
     2
291
     0
 71
     3
176
     1
 72
     2
176
     1
 73
     0
176
     1
 90
        0
176
     1
 40
0.6
176
     1
 41
30.0
176
     1
 63
     7
176
     1
 74
     2
176
     1
 91
        2
176
     1
 64
     7
176
     1
 65
   257
176
     1
 75
     1
176
     1
175
     1
176
     1
 42
179.0
176
     1
 92
        8
176
     1
 66
     7
176
     1
 43
1.0
176
     1
 76
     1
176
     1
 77
     6
176
     1
 78
     2
176
     1
 67
     7
176
     1
 79
     3
176
     1
170
     0
176
     1
171
     0
176
     1
290
     0
176
     1
 93
        1
176
     1
 44
0.0
176
     1
173
     0
176
     1
1001
ACAD
1000
AcDbSavedByObjectVersion
1070
     0
  0
VISUALSTYLE
  5
927DD
102
{ACAD_XDICTIONARY
360
A3C9C
102
}
102
{ACAD_REACTORS
330
927D2
102
}
330
927D2
100
AcDbVisualStyle
  2

 70
    11
177
     2
291
     1
 71
     2
176
     1
 72
     2
176
     1
 73
     0
176
     1
 90
        0
176
     1
 40
0.6
176
     1
 41
30.0
176
     1
 63
     7
176
     1
 74
     1
176
     1
 91
        4
176
     1
 64
     7
176
     1
 65
   257
176
     1
 75
     1
176
     1
175
     1
176
     1
 42
1.0
176
     1
 92
        8
176
     1
 66
     7
176
     1
 43
1.0
176
     1
 76
     1
176
     1
 77
     6
176
     1
 78
     2
176
     1
 67
     7
176
     1
 79
     5
176
     1
170
     0
176
     1
171
     0
176
     1
290
     0
176
     1
 93
        1
176
     1
 44
-50.0
176
     1
173
     0
176
     1
1001
ACAD
1000
AcDbSavedByObjectVersion
1070
     0
  0
VISUALSTYLE
  5
927E5
102
{ACAD_XDICTIONARY
360
A3CAC
102
}
102
{ACAD_REACTORS
330
927D2
102
}
330
927D2
100
AcDbVisualStyle
  2

 70
    22
177
     2
291
     1
 71
     2
176
     0
 72
     2
176
     0
 73
     0
176
     0
 90
        0
176
     0
 40
0.6
176
     0
 41
30.0
176
     0
 63
     7
176
     0
 74
     1
176
     0
 91
        4
176
     0
 64
     7
176
     0
 65
   257
176
     0
 75
     1
176
     0
175
     1
176
     0
 42
1.0
176
     0
 92
        8
176
     2
 66
     7
176
     0
 43
1.0
176
     0
 76
     1
176
     0
 77
     6
176
     0
 78
     2
176
     0
 67
     7
176
     0
 79
     5
176
     0
170
     0
176
     0
171
     0
176
     0
290
     0
176
     0
 93
        1
176
     0
 44
0.0
176
     0
173
     0
176
     0
1001
ACAD
1000
AcDbSavedByObjectVersion
1070
     0
  0
VISUALSTYLE
  5
927E1
102
{ACAD_XDICTIONARY
360
A3CA4
102
}
102
{ACAD_REACTORS
330
927D2
102
}
330
927D2
100
AcDbVisualStyle
  2

 70
    15
177
     2
291
     1
 71
     2
176
     1
 72
     2
176
     1
 73
     0
176
     1
 90
        0
176
     1
 40
0.6
176
     1
 41
30.0
176
     1
 63
     7
176
     1
 74
     1
176
     1
 91
        4
176
     1
 64
     7
176
     1
 65
   257
176
     1
 75
     1
176
     1
175
     1
176
     1
 42
1.0
176
     1
 92
        8
176
     1
 66
     7
176
     1
 43
1.0
176
     1
 76
     1
176
     1
 77
     6
176
     1
 78
     2
176
     1
 67
     7
176
     1
 79
     5
176
     1
170
     0
176
     1
171
     0
176
     1
290
     0
176
     1
 93
        1
176
     1
 44
0.0
176
     1
173
     0
176
     1
1001
ACAD
1000
AcDbSavedByObjectVersion
1070
     0
  0
VISUALSTYLE
  5
927D3
102
{ACAD_XDICTIONARY
360
A3C88
102
}
102
{ACAD_REACTORS
330
927D2
102
}
330
927D2
100
AcDbVisualStyle
  2

 70
     0
177
     2
291
     1
 71
     2
176
     1
 72
     1
176
     1
 73
     1
176
     1
 90
        2
176
     1
 40
0.6
176
     1
 41
30.0
176
     1
 63
     7
176
     1
 74
     0
176
     1
 91
        4
176
     1
 64
     7
176
     1
 65
   257
176
     1
 75
     1
176
     1
175
     1
176
     1
 42
1.0
176
     1
 92
        8
176
     1
 66
     7
176
     1
 43
1.0
176
     1
 76
     1
176
     1
 77
     6
176
     1
 78
     2
176
     1
 67
     7
176
     1
 79
     5
176
     1
170
     0
176
     1
171
     0
176
     1
290
     0
176
     1
 93
       13
176
     1
 44
0.0
176
     1
173
     0
176
     1
1001
ACAD
1000
AcDbSavedByObjectVersion
1070
     0
  0
VISUALSTYLE
  5
927D4
102
{ACAD_XDICTIONARY
360
A3C8A
102
}
102
{ACAD_REACTORS
330
927D2
102
}
330
927D2
100
AcDbVisualStyle
  2

 70
     1
177
     2
291
     1
 71
     2
176
     1
 72
     1
176
     1
 73
     1
176
     1
 90
        2
176
     1
 40
0.6
176
     1
 41
30.0
176
     1
 63
     7
176
     1
 74
     1
176
     1
 91
        4
176
     1
 64
     7
176
     1
 65
   257
176
     1
 75
     1
176
     1
175
     1
176
     1
 42
1.0
176
     1
 92
        0
176
     1
 66
   257
176
     1
 43
1.0
176
     1
 76
     1
176
     1
 77
     6
176
     1
 78
     2
176
     1
 67
     7
176
     1
 79
     5
176
     1
170
     0
176
     1
171
     0
176
     1
290
     0
176
     1
 93
       13
176
     1
 44
0.0
176
     1
173
     0
176
     1
1001
ACAD
1000
AcDbSavedByObjectVersion
1070
     0
  0
VISUALSTYLE
  5
927D5
102
{ACAD_XDICTIONARY
360
A3C8C
102
}
102
{ACAD_REACTORS
330
927D2
102
}
330
927D2
100
AcDbVisualStyle
  2

 70
     2
177
     2
291
     1
 71
     2
176
     1
 72
     2
176
     1
 73
     1
176
     1
 90
        2
176
     1
 40
0.6
176
     1
 41
30.0
176
     1
 63
     7
176
     1
 74
     0
176
     1
 91
        4
176
     1
 64
     7
176
     1
 65
   257
176
     1
 75
     1
176
     1
175
     1
176
     1
 42
1.0
176
     1
 92
        0
176
     1
 66
     7
176
     1
 43
1.0
176
     1
 76
     1
176
     1
 77
     6
176
     1
 78
     2
176
     1
 67
     7
176
     1
 79
     5
176
     1
170
     0
176
     1
171
     0
176
     1
290
     0
176
     1
 93
       13
176
     1
 44
0.0
176
     1
173
     0
176
     1
1001
ACAD
1000
AcDbSavedByObjectVersion
1070
     0
  0
VISUALSTYLE
  5
927D6
102
{ACAD_XDICTIONARY
360
A3C8E
102
}
102
{ACAD_REACTORS
330
927D2
102
}
330
927D2
100
AcDbVisualStyle
  2

 70
     3
177
     2
291
     1
 71
     2
176
     1
 72
     2
176
     1
 73
     1
176
     1
 90
        2
176
     1
 40
0.6
176
     1
 41
30.0
176
     1
 63
     7
176
     1
 74
     1
176
     1
 91
        4
176
     1
 64
     7
176
     1
 65
   257
176
     1
 75
     1
176
     1
175
     1
176
     1
 42
1.0
176
     1
 92
        0
176
     1
 66
   257
176
     1
 43
1.0
176
     1
 76
     1
176
     1
 77
     6
176
     1
 78
     2
176
     1
 67
     7
176
     1
 79
     5
176
     1
170
     0
176
     1
171
     0
176
     1
290
     0
176
     1
 93
       13
176
     1
 44
0.0
176
     1
173
     0
176
     1
1001
ACAD
1000
AcDbSavedByObjectVersion
1070
     0
  0
VISUALSTYLE
  5
A3AEA
102
{ACAD_XDICTIONARY
360
A3CB0
102
}
102
{ACAD_REACTORS
330
927D2
102
}
330
927D2
100
AcDbVisualStyle
  2

 70
     6
177
     2
291
     0
 71
     1
176
     1
 72
     2
176
     1
 73
     2
176
     1
 90
        0
176
     1
 40
0.6
176
     1
 41
30.0
176
     1
 63
     7
176
     1
 74
     2
176
     1
 91
        2
176
     1
 64
     7
176
     1
 65
   257
176
     1
 75
     2
176
     1
175
     1
176
     1
 42
40.0
176
     1
 92
        0
176
     1
 66
   257
176
     1
 43
1.0
176
     1
 76
     1
176
     1
 77
     6
176
     1
 78
     2
176
     1
 67
     7
176
     1
 79
     3
176
     1
170
     0
176
     1
171
     0
176
     1
290
     0
176
     1
 93
        1
176
     1
 44
0.0
176
     1
173
     0
176
     1
1001
ACAD
1000
AcDbSavedByObjectVersion
1070
     0
  0
VISUALSTYLE
  5
927E3
102
{ACAD_XDICTIONARY
360
A3CA8
102
}
102
{ACAD_REACTORS
330
927D2
102
}
330
927D2
100
AcDbVisualStyle
  2

 70
    20
177
     2
291
     1
 71
     2
176
     0
 72
     2
176
     0
 73
     0
176
     0
 90
        0
176
     0
 40
0.6
176
     0
 41
30.0
176
     0
 63
     7
176
     0
 74
     1
176
     0
 91
        4
176
     0
 64
     7
176
     0
 65
   257
176
     0
 75
     1
176
     0
175
     1
176
     0
 42
1.0
176
     0
 92
       10
176
     2
 66
     7
176
     0
 43
1.0
176
     0
 76
     1
176
     0
 77
     6
176
     0
 78
     2
176
     0
 67
     7
176
     0
 79
     5
176
     0
170
     0
176
     0
171
     0
176
     0
290
     0
176
     0
 93
        1
176
     0
 44
0.0
176
     0
173
     0
176
     0
1001
ACAD
1000
AcDbSavedByObjectVersion
1070
     0
  0
VISUALSTYLE
  5
927E0
102
{ACAD_XDICTIONARY
360
A3CA2
102
}
102
{ACAD_REACTORS
330
927D2
102
}
330
927D2
100
AcDbVisualStyle
  2

 70
    14
177
     2
291
     1
 71
     2
176
     1
 72
     2
176
     1
 73
     0
176
     1
 90
        0
176
     1
 40
0.6
176
     1
 41
30.0
176
     1
 63
     7
176
     1
 74
     1
176
     1
 91
        4
176
     1
 64
     7
176
     1
 65
   257
176
     1
 75
     7
176
     1
175
     7
176
     1
 42
1.0
176
     1
 92
        8
176
     1
 66
     7
176
     1
 43
1.0
176
     1
 76
     1
176
     1
 77
     6
176
     1
 78
     2
176
     1
 67
     7
176
     1
 79
     5
176
     1
170
     0
176
     1
171
     0
176
     1
290
     0
176
     1
 93
        1
176
     1
 44
0.0
176
     1
173
     0
176
     1
1001
ACAD
1000
AcDbSavedByObjectVersion
1070
     0
  0
VISUALSTYLE
  5
927E4
102
{ACAD_XDICTIONARY
360
A3CAA
102
}
102
{ACAD_REACTORS
330
927D2
102
}
330
927D2
100
AcDbVisualStyle
  2

 70
    21
177
     2
291
     1
 71
     2
176
     0
 72
     2
176
     0
 73
     0
176
     0
 90
        0
176
     0
 40
0.6
176
     0
 41
30.0
176
     0
 63
     7
176
     0
 74
     1
176
     0
 91
        4
176
     0
 64
     7
176
     0
 65
   257
176
     0
 75
     1
176
     0
175
     1
176
     0
 42
1.0
176
     0
 92
        9
176
     2
 66
     7
176
     0
 43
1.0
176
     0
 76
     1
176
     0
 77
     6
176
     0
 78
     2
176
     0
 67
     7
176
     0
 79
     5
176
     0
170
     0
176
     0
171
     0
176
     0
290
     0
176
     0
 93
        1
176
     0
 44
0.0
176
     0
173
     0
176
     0
1001
ACAD
1000
AcDbSavedByObjectVersion
1070
     0
  0
VISUALSTYLE
  5
927DC
102
{ACAD_XDICTIONARY
360
A3C9A
102
}
102
{ACAD_REACTORS
330
927D2
102
}
330
927D2
100
AcDbVisualStyle
  2

 70
     8
177
     2
291
     0
 71
     2
176
     1
 72
     2
176
     1
 73
     0
176
     1
 90
        0
176
     1
 40
0.6
176
     1
 41
30.0
176
     1
 63
     7
176
     1
 74
     1
176
     1
 91
        0
176
     1
 64
     7
176
     1
 65
   257
176
     1
 75
     1
176
     1
175
     1
176
     1
 42
1.0
176
     1
 92
        8
176
     1
 66
     8
176
     1
 43
1.0
176
     1
 76
     1
176
     1
 77
     6
176
     1
 78
     2
176
     1
 67
     7
176
     1
 79
     5
176
     1
170
     0
176
     1
171
     0
176
     1
290
     0
176
     1
 93
       13
176
     1
 44
0.0
176
     1
173
     0
176
     1
1001
ACAD
1000
AcDbSavedByObjectVersion
1070
     0
  0
VISUALSTYLE
  5
A3AEF
102
{ACAD_XDICTIONARY
360
A3CBA
102
}
102
{ACAD_REACTORS
330
927D2
102
}
330
927D2
100
AcDbVisualStyle
  2

 70
    27
177
     2
291
     0
 71
     2
176
     1
 72
     2
176
     1
 73
     1
176
     1
 90
        2
176
     1
 40
0.6
176
     1
 41
30.0
176
     1
 63
     7
176
     1
 74
     0
176
     1
 91
        4
176
     1
 64
     7
176
     1
 65
   257
176
     1
 75
     1
176
     1
175
     1
176
     1
 42
1.0
176
     1
 92
        8
176
     1
 66
   257
176
     1
 43
1.0
176
     1
 76
     1
176
     1
 77
     6
176
     1
 78
     2
176
     1
 67
     8
176
     1
 79
     3
176
     1
170
     0
176
     1
171
     0
176
     1
290
     0
176
     1
 93
        5
176
     1
 44
0.0
176
     1
173
     0
176
     1
1001
ACAD
1000
AcDbSavedByObjectVersion
1070
     0
  0
VISUALSTYLE
  5
A3AEE
102
{ACAD_XDICTIONARY
360
A3CB8
102
}
102
{ACAD_REACTORS
330
927D2
102
}
330
927D2
100
AcDbVisualStyle
  2

 70
    26
177
     2
291
     0
 71
     2
176
     1
 72
     2
176
     1
 73
     1
176
     1
 90
        2
176
     1
 40
0.6
176
     1
 41
30.0
176
     1
 63
     7
176
     1
 74
     1
176
     1
 91
       10
176
     1
 64
     7
176
     1
 65
   257
176
     1
 75
     2
176
     1
175
     1
176
     1
 42
1.0
176
     1
 92
        8
176
     1
 66
   257
176
     1
 43
1.0
176
     1
 76
     1
176
     1
 77
     6
176
     1
 78
     2
176
     1
 67
     7
176
     1
 79
     3
176
     1
170
     0
176
     1
171
     0
176
     1
290
     0
176
     1
 93
        5
176
     1
 44
0.0
176
     1
173
     0
176
     1
1001
ACAD
1000
AcDbSavedByObjectVersion
1070
     0
  0
VISUALSTYLE
  5
A3AEB
102
{ACAD_XDICTIONARY
360
A3CB2
102
}
102
{ACAD_REACTORS
330
927D2
102
}
330
927D2
100
AcDbVisualStyle
  2

 70
    23
177
     2
291
     0
 71
     2
176
     1
 72
     2
176
     1
 73
     3
176
     1
 90
        0
176
     1
 40
0.6
176
     1
 41
30.0
176
     1
 63
     7
176
     1
 74
     2
176
     1
 91
        2
176
     1
 64
     7
176
     1
 65
     7
176
     1
 75
     1
176
     1
175
     1
176
     1
 42
40.0
176
     1
 92
        8
176
     1
 66
     7
176
     1
 43
1.0
176
     1
 76
     1
176
     1
 77
     6
176
     1
 78
     2
176
     1
 67
     7
176
     1
 79
     3
176
     1
170
     0
176
     1
171
     0
176
     1
290
     0
176
     1
 93
        1
176
     1
 44
0.0
176
     1
173
     0
176
     1
1001
ACAD
1000
AcDbSavedByObjectVersion
1070
     0
  0
VISUALSTYLE
  5
A3AEC
102
{ACAD_XDICTIONARY
360
A3CB4
102
}
102
{ACAD_REACTORS
330
927D2
102
}
330
927D2
100
AcDbVisualStyle
  2

 70
    24
177
     2
291
     0
 71
     1
176
     1
 72
     2
176
     1
 73
     2
176
     1
 90
        0
176
     1
 40
0.6
176
     1
 41
30.0
176
     1
 63
     7
176
     1
 74
     2
176
     1
 91
        2
176
     1
 64
     7
176
     1
 65
     7
176
     1
 75
     1
176
     1
175
     1
176
     1
 42
40.0
176
     1
 92
       11
176
     1
 66
     7
176
     1
 43
1.0
176
     1
 76
     1
176
     1
 77
     6
176
     1
 78
     2
176
     1
 67
     7
176
     1
 79
     6
176
     1
170
     0
176
     1
171
     0
176
     1
290
     0
176
     1
 93
        1
176
     1
 44
0.0
176
     1
173
     0
176
     1
1001
ACAD
1000
AcDbSavedByObjectVersion
1070
     0
  0
VISUALSTYLE
  5
927DF
102
{ACAD_XDICTIONARY
360
A3CA0
102
}
102
{ACAD_REACTORS
330
927D2
102
}
330
927D2
100
AcDbVisualStyle
  2

 70
    13
177
     2
291
     1
 71
     2
176
     1
 72
     2
176
     1
 73
     0
176
     1
 90
        0
176
     1
 40
0.6
176
     1
 41
30.0
176
     1
 63
     7
176
     1
 74
     1
176
     1
 91
        4
176
     1
 64
     7
176
     1
 65
   257
176
     1
 75
     1
176
     1
175
     1
176
     1
 42
1.0
176
     1
 92
       12
176
     1
 66
     7
176
     1
 43
1.0
176
     1
 76
     1
176
     1
 77
     6
176
     1
 78
     2
176
     1
 67
     7
176
     1
 79
     5
176
     1
170
     0
176
     1
171
     0
176
     1
290
     0
176
     1
 93
        1
176
     1
 44
0.0
176
     1
173
     0
176
     1
1001
ACAD
1000
AcDbSavedByObjectVersion
1070
     0
  0
VISUALSTYLE
  5
A3AE9
102
{ACAD_XDICTIONARY
360
A3CAE
102
}
102
{ACAD_REACTORS
330
927D2
102
}
330
927D2
100
AcDbVisualStyle
  2

 70
     5
177
     2
291
     0
 71
     0
176
     1
 72
     2
176
     1
 73
     0
176
     1
 90
        0
176
     1
 40
0.6
176
     1
 41
30.0
176
     1
 63
     7
176
     1
 74
     1
176
     1
 91
        4
176
     1
 64
     7
176
     1
 65
   257
176
     1
 75
     1
176
     1
175
     1
176
     1
 42
1.0
176
     1
 92
        0
176
     1
 66
   257
176
     1
 43
1.0
176
     1
 76
     1
176
     1
 77
     6
176
     1
 78
     2
176
     1
 67
     7
176
     1
 79
     3
176
     1
170
     0
176
     1
171
     0
176
     1
290
     0
176
     1
 93
        1
176
     1
 44
0.0
176
     1
173
     0
176
     1
1001
ACAD
1000
AcDbSavedByObjectVersion
1070
     0
  0
VISUALSTYLE
  5
A3AED
102
{ACAD_XDICTIONARY
360
A3CB6
102
}
102
{ACAD_REACTORS
330
927D2
102
}
330
927D2
100
AcDbVisualStyle
  2

 70
    25
177
     2
291
     0
 71
     2
176
     1
 72
     2
176
     1
 73
     1
176
     1
 90
        1
176
     1
 40
0.5
176
     1
 41
30.0
176
     1
 63
     7
176
     1
 74
     1
176
     1
 91
        0
176
     1
 64
     7
176
     1
 65
   257
176
     1
 75
     1
176
     1
175
     1
176
     1
 42
1.0
176
     1
 92
        8
176
     1
 66
     7
176
     1
 43
1.0
176
     1
 76
     1
176
     1
 77
     6
176
     1
 78
     2
176
     1
 67
     7
176
     1
 79
     3
176
     1
170
     0
176
     1
171
     0
176
     1
290
     0
176
     1
 93
       13
176
     1
 44
0.0
176
     1
173
     0
176
     1
1001
ACAD
1000
AcDbSavedByObjectVersion
1070
     0
  0
DICTIONARYVAR
  5
931C0
102
{ACAD_REACTORS
330
59
102
}
330
59
100
DictionaryVariables
280
     0
  1
1:1
  0
DICTIONARYVAR
  5
931BF
102
{ACAD_REACTORS
330
59
102
}
330
59
100
DictionaryVariables
280
     0
  1
STANDARD
  0
DICTIONARYVAR
  5
100D
102
{ACAD_REACTORS
330
59
102
}
330
59
100
DictionaryVariables
280
     0
  1
STANDARD
  0
DICTIONARYVAR
  5
A3B02
102
{ACAD_REACTORS
330
59
102
}
330
59
100
DictionaryVariables
280
     0
  1
Imperial24
  0
DICTIONARYVAR
  5
A3B03
102
{ACAD_REACTORS
330
59
102
}
330
59
100
DictionaryVariables
280
     0
  1
Imperial24
  0
DICTIONARYVAR
  5
5A
102
{ACAD_REACTORS
330
59
102
}
330
59
100
DictionaryVariables
280
     0
  1
2
  0
DICTIONARYVAR
  5
5E
102
{ACAD_REACTORS
330
59
102
}
330
59
100
DictionaryVariables
280
     0
  1
1
  0
DICTIONARYVAR
  5
931C2
102
{ACAD_REACTORS
330
59
102
}
330
59
100
DictionaryVariables
280
     0
  1
0
  0
DICTIONARYVAR
  5
A3C18
102
{ACAD_REACTORS
330
59
102
}
330
59
100
DictionaryVariables
280
     0
  1
1
  0
DICTIONARYVAR
  5
A3C19
102
{ACAD_REACTORS
330
59
102
}
330
59
100
DictionaryVariables
280
     0
  1
15
  0
DICTIONARYVAR
  5
A3C17
102
{ACAD_REACTORS
330
59
102
}
330
59
100
DictionaryVariables
280
     0
  1
0
  0
DICTIONARYVAR
  5
A3C16
102
{ACAD_REACTORS
330
59
102
}
330
59
100
DictionaryVariables
280
     0
  1
0
  0
DICTIONARYVAR
  5
931C1
102
{ACAD_REACTORS
330
59
102
}
330
59
100
DictionaryVariables
280
     0
  1
127
  0
DICTIONARY
  5
A3C87
102
{ACAD_REACTORS
330
A3C85
102
}
330
A3C85
100
AcDbDictionary
281
     1
  0
DICTIONARY
  5
A3C86
102
{ACAD_REACTORS
330
A3C85
102
}
330
A3C85
100
AcDbDictionary
281
     1
  3
140478798224384
350
A3C80
  3
140478798224400
350
A3C81
  3
140478798224416
350
A3C82
  3
140478798224432
350
A3C83
  3
140478798224448
350
A3C84
  0
XRECORD
  5
47AC1
102
{ACAD_REACTORS
330
47AC0
102
}
330
47AC0
100
AcDbXrecord
280
     1
330
0
330
0
330
0
330
0
330
0
330
0
  0
VLO-VL
  5
92822
102
{ACAD_REACTORS
330
92821
102
}
330
92821
100
vlo_VL
 90
   -64512
 91
       12
 92
        1
 40
2.5
300
(&VLO-R . 0)
  0
DICTIONARY
  5
A3CBE
330
A3AF3
100
AcDbDictionary
280
     1
281
     1
  3
ACAD_XREC_ROUNDTRIP
360
A3CBF
  0
DICTIONARY
  5
A3CC2
330
A3C5A
100
AcDbDictionary
280
     1
281
     1
  3
ACAD_XREC_ROUNDTRIP
360
A3CC3
  0
DICTIONARY
  5
927C3
330
927C2
100
AcDbDictionary
280
     1
281
     1
  3
ACAD_XREC_ROUNDTRIP
360
A3BA5
  3
BUMPTILE
360
927C5
  3
DIFFUSETILE
360
927C4
  3
OPACITYTILE
360
927C8
  3
REFLECTIONTILE
360
927C7
  3
REFRACTIONTILE
360
927C9
  3
SPECULARTILE
360
927C6
  0
DICTIONARY
  5
927BB
330
927BA
100
AcDbDictionary
280
     1
281
     1
  3
ACAD_XREC_ROUNDTRIP
360
A3BA4
  3
BUMPTILE
360
927BD
  3
DIFFUSETILE
360
927BC
  3
OPACITYTILE
360
927C0
  3
REFLECTIONTILE
360
927BF
  3
REFRACTIONTILE
360
927C1
  3
SPECULARTILE
360
927BE
  0
DICTIONARY
  5
927CB
330
927CA
100
AcDbDictionary
280
     1
281
     1
  3
ACAD_XREC_ROUNDTRIP
360
A3BA6
  3
BUMPTILE
360
927CD
  3
DIFFUSETILE
360
927CC
  3
OPACITYTILE
360
927D0
  3
REFLECTIONTILE
360
927CF
  3
REFRACTIONTILE
360
927D1
  3
SPECULARTILE
360
927CE
  0
DICTIONARY
  5
A3CBC
330
A3AF1
100
AcDbDictionary
280
     1
281
     1
  3
ACAD_XREC_ROUNDTRIP
360
A3CBD
  0
DICTIONARY
  5
A3CC0
330
A3C59
100
AcDbDictionary
280
     1
281
     1
  3
ACAD_XREC_ROUNDTRIP
360
A3CC1
  0
DICTIONARY
  5
93116
330
FB0
100
AcDbDictionary
280
     1
281
     1
  3
ACAD_ROUNDTRIP_2008_TABLESTYLE_CELLSTYLEMAP
360
A3C7B
  0
DICTIONARY
  5
A3C92
330
927D8
100
AcDbDictionary
280
     1
281
     1
  3
ACAD_XREC_ROUNDTRIP
360
A3C93
  0
DICTIONARY
  5
A3C96
330
927DA
100
AcDbDictionary
280
     1
281
     1
  3
ACAD_XREC_ROUNDTRIP
360
A3C97
  0
DICTIONARY
  5
A3C94
330
927D9
100
AcDbDictionary
280
     1
281
     1
  3
ACAD_XREC_ROUNDTRIP
360
A3C95
  0
DICTIONARY
  5
A3C90
330
927D7
100
AcDbDictionary
280
     1
281
     1
  3
ACAD_XREC_ROUNDTRIP
360
A3C91
  0
DICTIONARY
  5
A3C9E
330
927DE
100
AcDbDictionary
280
     1
281
     1
  3
ACAD_XREC_ROUNDTRIP
360
A3C9F
  0
DICTIONARY
  5
A3CA6
330
927E2
100
AcDbDictionary
280
     1
281
     1
  3
ACAD_XREC_ROUNDTRIP
360
A3CA7
  0
DICTIONARY
  5
A3C98
330
927DB
100
AcDbDictionary
280
     1
281
     1
  3
ACAD_XREC_ROUNDTRIP
360
A3C99
  0
DICTIONARY
  5
A3C9C
330
927DD
100
AcDbDictionary
280
     1
281
     1
  3
ACAD_XREC_ROUNDTRIP
360
A3C9D
  0
DICTIONARY
  5
A3CAC
330
927E5
100
AcDbDictionary
280
     1
281
     1
  3
ACAD_XREC_ROUNDTRIP
360
A3CAD
  0
DICTIONARY
  5
A3CA4
330
927E1
100
AcDbDictionary
280
     1
281
     1
  3
ACAD_XREC_ROUNDTRIP
360
A3CA5
  0
DICTIONARY
  5
A3C88
330
927D3
100
AcDbDictionary
280
     1
281
     1
  3
ACAD_XREC_ROUNDTRIP
360
A3C89
  0
DICTIONARY
  5
A3C8A
330
927D4
100
AcDbDictionary
280
     1
281
     1
  3
ACAD_XREC_ROUNDTRIP
360
A3C8B
  0
DICTIONARY
  5
A3C8C
330
927D5
100
AcDbDictionary
280
     1
281
     1
  3
ACAD_XREC_ROUNDTRIP
360
A3C8D
  0
DICTIONARY
  5
A3C8E
330
927D6
100
AcDbDictionary
280
     1
281
     1
  3
ACAD_XREC_ROUNDTRIP
360
A3C8F
  0
DICTIONARY
  5
A3CB0
330
A3AEA
100
AcDbDictionary
280
     1
281
     1
  3
ACAD_XREC_ROUNDTRIP
360
A3CB1
  0
DICTIONARY
  5
A3CA8
330
927E3
100
AcDbDictionary
280
     1
281
     1
  3
ACAD_XREC_ROUNDTRIP
360
A3CA9
  0
DICTIONARY
  5
A3CA2
330
927E0
100
AcDbDictionary
280
     1
281
     1
  3
ACAD_XREC_ROUNDTRIP
360
A3CA3
  0
DICTIONARY
  5
A3CAA
330
927E4
100
AcDbDictionary
280
     1
281
     1
  3
ACAD_XREC_ROUNDTRIP
360
A3CAB
  0
DICTIONARY
  5
A3C9A
330
927DC
100
AcDbDictionary
280
     1
281
     1
  3
ACAD_XREC_ROUNDTRIP
360
A3C9B
  0
DICTIONARY
  5
A3CBA
330
A3AEF
100
AcDbDictionary
280
     1
281
     1
  3
ACAD_XREC_ROUNDTRIP
360
A3CBB
  0
DICTIONARY
  5
A3CB8
330
A3AEE
100
AcDbDictionary
280
     1
281
     1
  3
ACAD_XREC_ROUNDTRIP
360
A3CB9
  0
DICTIONARY
  5
A3CB2
330
A3AEB
100
AcDbDictionary
280
     1
281
     1
  3
ACAD_XREC_ROUNDTRIP
360
A3CB3
  0
DICTIONARY
  5
A3CB4
330
A3AEC
100
AcDbDictionary
280
     1
281
     1
  3
ACAD_XREC_ROUNDTRIP
360
A3CB5
  0
DICTIONARY
  5
A3CA0
330
927DF
100
AcDbDictionary
280
     1
281
     1
  3
ACAD_XREC_ROUNDTRIP
360
A3CA1
  0
DICTIONARY
  5
A3CAE
330
A3AE9
100
AcDbDictionary
280
     1
281
     1
  3
ACAD_XREC_ROUNDTRIP
360
A3CAF
  0
DICTIONARY
  5
A3CB6
330
A3AED
100
AcDbDictionary
280
     1
281
     1
  3
ACAD_XREC_ROUNDTRIP
360
A3CB7
  0
XRECORD
  5
A3C80
102
{ACAD_REACTORS
330
A3C86
102
}
330
A3C86
100
AcDbXrecord
280
     1
  1
AcDb_Thumbnail_Schema
102
{ATTRRECORD
341
A3C81
  2
AcDbDs::TreatedAsObjectData
280
     1
291
     1
102
ATTRRECORD}
102
{ATTRRECORD
341
A3C82
  2
AcDbDs::Legacy
280
     1
291
     1
102
ATTRRECORD}
  2
AcDbDs::ID
280
    10
 91
        8
102
{ATTRRECORD
341
A3C83
  2
AcDs:Indexable
280
     1
291
     1
102
ATTRRECORD}
102
{ATTRRECORD
341
A3C84
  2
AcDbDs::HandleAttribute
280
     7
282
     1
102
ATTRRECORD}
  2
Thumbnail_Data
280
    15
 91
        0
  0
XRECORD
  5
A3C81
102
{ACAD_REACTORS
330
A3C86
102
}
330
A3C86
100
AcDbXrecord
280
     1
  1
AcDbDs::TreatedAsObjectDataSchema
  2
AcDbDs::TreatedAsObjectData
280
     1
 91
        0
  0
XRECORD
  5
A3C82
102
{ACAD_REACTORS
330
A3C86
102
}
330
A3C86
100
AcDbXrecord
280
     1
  1
AcDbDs::LegacySchema
  2
AcDbDs::Legacy
280
     1
 91
        0
  0
XRECORD
  5
A3C83
102
{ACAD_REACTORS
330
A3C86
102
}
330
A3C86
100
AcDbXrecord
280
     1
  1
AcDbDs::IndexedPropertySchema
  2
AcDs:Indexable
280
     1
 91
        0
  0
XRECORD
  5
A3C84
102
{ACAD_REACTORS
330
A3C86
102
}
330
A3C86
100
AcDbXrecord
280
     1
  1
AcDbDs::HandleAttributeSchema
  2
AcDbDs::HandleAttribute
280
     7
 91
        1
284
     1
  0
XRECORD
  5
A3CBF
102
{ACAD_REACTORS
330
A3CBE
102
}
330
A3CBE
100
AcDbXrecord
280
     1
102
DISPLAYNAME
  1
Imperial24
102
FLAGS
 90
        0
  0
XRECORD
  5
A3CC3
102
{ACAD_REACTORS
330
A3CC2
102
}
330
A3CC2
100
AcDbXrecord
280
     1
102
DISPLAYNAME
  1
Metric50
102
FLAGS
 90
        0
  0
XRECORD
  5
A3BA5
102
{ACAD_REACTORS
330
927C3
102
}
330
927C3
100
AcDbXrecord
280
     1
102
MATERIAL
148
0.0
149
0.0
149
0.0
 93
        0
 94
      127
282
     0
 72
     0
 77
     0
171
     0
175
     0
179
     0
273
     0
  0
XRECORD
  5
927C5
102
{ACAD_REACTORS
330
927C3
102
}
330
927C3
100
AcDbXrecord
280
     1
270
     1
271
     1
  0
XRECORD
  5
927C4
102
{ACAD_REACTORS
330
927C3
102
}
330
927C3
100
AcDbXrecord
280
     1
270
     1
271
     1
  0
XRECORD
  5
927C8
102
{ACAD_REACTORS
330
927C3
102
}
330
927C3
100
AcDbXrecord
280
     1
270
     1
271
     1
  0
XRECORD
  5
927C7
102
{ACAD_REACTORS
330
927C3
102
}
330
927C3
100
AcDbXrecord
280
     1
270
     1
271
     1
  0
XRECORD
  5
927C9
102
{ACAD_REACTORS
330
927C3
102
}
330
927C3
100
AcDbXrecord
280
     1
270
     1
271
     1
  0
XRECORD
  5
927C6
102
{ACAD_REACTORS
330
927C3
102
}
330
927C3
100
AcDbXrecord
280
     1
270
     1
271
     1
  0
XRECORD
  5
A3BA4
102
{ACAD_REACTORS
330
927BB
102
}
330
927BB
100
AcDbXrecord
280
     1
102
MATERIAL
148
0.0
149
0.0
149
0.0
 93
        0
 94
      127
282
     0
 72
     0
 77
     0
171
     0
175
     0
179
     0
273
     0
  0
XRECORD
  5
927BD
102
{ACAD_REACTORS
330
927BB
102
}
330
927BB
100
AcDbXrecord
280
     1
270
     1
271
     1
  0
XRECORD
  5
927BC
102
{ACAD_REACTORS
330
927BB
102
}
330
927BB
100
AcDbXrecord
280
     1
270
     1
271
     1
  0
XRECORD
  5
927C0
102
{ACAD_REACTORS
330
927BB
102
}
330
927BB
100
AcDbXrecord
280
     1
270
     1
271
     1
  0
XRECORD
  5
927BF
102
{ACAD_REACTORS
330
927BB
102
}
330
927BB
100
AcDbXrecord
280
     1
270
     1
271
     1
  0
XRECORD
  5
927C1
102
{ACAD_REACTORS
330
927BB
102
}
330
927BB
100
AcDbXrecord
280
     1
270
     1
271
     1
  0
XRECORD
  5
927BE
102
{ACAD_REACTORS
330
927BB
102
}
330
927BB
100
AcDbXrecord
280
     1
270
     1
271
     1
  0
XRECORD
  5
A3BA6
102
{ACAD_REACTORS
330
927CB
102
}
330
927CB
100
AcDbXrecord
280
     1
102
MATERIAL
148
0.0
149
0.0
149
0.0
 93
        0
 94
      127
282
     0
 72
     0
 77
     0
171
     0
175
     0
179
     0
273
     0
  0
XRECORD
  5
927CD
102
{ACAD_REACTORS
330
927CB
102
}
330
927CB
100
AcDbXrecord
280
     1
270
     1
271
     1
  0
XRECORD
  5
927CC
102
{ACAD_REACTORS
330
927CB
102
}
330
927CB
100
AcDbXrecord
280
     1
270
     1
271
     1
  0
XRECORD
  5
927D0
102
{ACAD_REACTORS
330
927CB
102
}
330
927CB
100
AcDbXrecord
280
     1
270
     1
271
     1
  0
XRECORD
  5
927CF
102
{ACAD_REACTORS
330
927CB
102
}
330
927CB
100
AcDbXrecord
280
     1
270
     1
271
     1
  0
XRECORD
  5
927D1
102
{ACAD_REACTORS
330
927CB
102
}
330
927CB
100
AcDbXrecord
280
     1
270
     1
271
     1
  0
XRECORD
  5
927CE
102
{ACAD_REACTORS
330
927CB
102
}
330
927CB
100
AcDbXrecord
280
     1
270
     1
271
     1
  0
XRECORD
  5
A3CBD
102
{ACAD_REACTORS
330
A3CBC
102
}
330
A3CBC
100
AcDbXrecord
280
     1
102
DISPLAYNAME
  1
Imperial24
102
FLAGS
 90
        0
  0
XRECORD
  5
A3CC1
102
{ACAD_REACTORS
330
A3CC0
102
}
330
A3CC0
100
AcDbXrecord
280
     1
102
DISPLAYNAME
  1
Metric50
102
FLAGS
 90
        0
  0
CELLSTYLEMAP
  5
A3C7B
102
{ACAD_REACTORS
330
93116
102
}
330
93116
100
AcDbCellStyleMap
 90
        3
300
CELLSTYLE
  1
TABLEFORMAT_BEGIN
 90
        5
170
     1
 91
        0
 92
    32768
 62
   257
 93
        1
300
CONTENTFORMAT
  1
CONTENTFORMAT_BEGIN
 90
        0
 91
        0
 92
        4
 93
        0
300

 40
0.0
140
1.0
 94
        5
 62
     0
340
11
144
0.25
309
CONTENTFORMAT_END
171
     1
301
MARGIN
  1
CELLMARGIN_BEGIN
 40
0.06
 40
0.06
 40
0.06
 40
0.06
 40
0.18
 40
0.18
309
CELLMARGIN_END
 94
        6
 95
        1
302
GRIDFORMAT
  1
GRIDFORMAT_BEGIN
 90
        0
 91
        1
 62
     0
 92
       -2
340
0
 93
        0
 40
0.045
309
GRIDFORMAT_END
 95
        2
302
GRIDFORMAT
  1
GRIDFORMAT_BEGIN
 90
        0
 91
        1
 62
     0
 92
       -2
340
0
 93
        0
 40
0.045
309
GRIDFORMAT_END
 95
        4
302
GRIDFORMAT
  1
GRIDFORMAT_BEGIN
 90
        0
 91
        1
 62
     0
 92
       -2
340
0
 93
        0
 40
0.045
309
GRIDFORMAT_END
 95
        8
302
GRIDFORMAT
  1
GRIDFORMAT_BEGIN
 90
        0
 91
        1
 62
     0
 92
       -2
340
0
 93
        0
 40
0.045
309
GRIDFORMAT_END
 95
       16
302
GRIDFORMAT
  1
GRIDFORMAT_BEGIN
 90
        0
 91
        1
 62
     0
 92
       -2
340
0
 93
        0
 40
0.045
309
GRIDFORMAT_END
 95
       32
302
GRIDFORMAT
  1
GRIDFORMAT_BEGIN
 90
        0
 91
        1
 62
     0
 92
       -2
340
0
 93
        0
 40
0.045
309
GRIDFORMAT_END
309
TABLEFORMAT_END
  1
CELLSTYLE_BEGIN
 90
        1
 91
        1
300
_TITLE
309
CELLSTYLE_END
300
CELLSTYLE
  1
TABLEFORMAT_BEGIN
 90
        5
170
     1
 91
        0
 92
        0
 62
   257
 93
        1
300
CONTENTFORMAT
  1
CONTENTFORMAT_BEGIN
 90
        0
 91
        0
 92
        4
 93
        0
300

 40
0.0
140
1.0
 94
        5
 62
     0
340
11
144
0.18
309
CONTENTFORMAT_END
171
     1
301
MARGIN
  1
CELLMARGIN_BEGIN
 40
0.06
 40
0.06
 40
0.06
 40
0.06
 40
0.18
 40
0.18
309
CELLMARGIN_END
 94
        6
 95
        1
302
GRIDFORMAT
  1
GRIDFORMAT_BEGIN
 90
        0
 91
        1
 62
     0
 92
       -2
340
0
 93
        0
 40
0.045
309
GRIDFORMAT_END
 95
        2
302
GRIDFORMAT
  1
GRIDFORMAT_BEGIN
 90
        0
 91
        1
 62
     0
 92
       -2
340
0
 93
        0
 40
0.045
309
GRIDFORMAT_END
 95
        4
302
GRIDFORMAT
  1
GRIDFORMAT_BEGIN
 90
        0
 91
        1
 62
     0
 92
       -2
340
0
 93
        0
 40
0.045
309
GRIDFORMAT_END
 95
        8
302
GRIDFORMAT
  1
GRIDFORMAT_BEGIN
 90
        0
 91
        1
 62
     0
 92
       -2
340
0
 93
        0
 40
0.045
309
GRIDFORMAT_END
 95
       16
302
GRIDFORMAT
  1
GRIDFORMAT_BEGIN
 90
        0
 91
        1
 62
     0
 92
       -2
340
0
 93
        0
 40
0.045
309
GRIDFORMAT_END
 95
       32
302
GRIDFORMAT
  1
GRIDFORMAT_BEGIN
 90
        0
 91
        1
 62
     0
 92
       -2
340
0
 93
        0
 40
0.045
309
GRIDFORMAT_END
309
TABLEFORMAT_END
  1
CELLSTYLE_BEGIN
 90
        2
 91
        1
300
_HEADER
309
CELLSTYLE_END
300
CELLSTYLE
  1
TABLEFORMAT_BEGIN
 90
        5
170
     1
 91
        0
 92
        0
 62
   257
 93
        1
300
CONTENTFORMAT
  1
CONTENTFORMAT_BEGIN
 90
        0
 91
        0
 92
        4
 93
        0
300

 40
0.0
140
1.0
 94
        2
 62
     0
340
11
144
0.18
309
CONTENTFORMAT_END
171
     1
301
MARGIN
  1
CELLMARGIN_BEGIN
 40
0.06
 40
0.06
 40
0.06
 40
0.06
 40
0.18
 40
0.18
309
CELLMARGIN_END
 94
        6
 95
        1
302
GRIDFORMAT
  1
GRIDFORMAT_BEGIN
 90
        0
 91
        1
 62
     0
 92
       -2
340
0
 93
        0
 40
0.045
309
GRIDFORMAT_END
 95
        2
302
GRIDFORMAT
  1
GRIDFORMAT_BEGIN
 90
        0
 91
        1
 62
     0
 92
       -2
340
0
 93
        0
 40
0.045
309
GRIDFORMAT_END
 95
        4
302
GRIDFORMAT
  1
GRIDFORMAT_BEGIN
 90
        0
 91
        1
 62
     0
 92
       -2
340
0
 93
        0
 40
0.045
309
GRIDFORMAT_END
 95
        8
302
GRIDFORMAT
  1
GRIDFORMAT_BEGIN
 90
        0
 91
        1
 62
     0
 92
       -2
340
0
 93
        0
 40
0.045
309
GRIDFORMAT_END
 95
       16
302
GRIDFORMAT
  1
GRIDFORMAT_BEGIN
 90
        0
 91
        1
 62
     0
 92
       -2
340
0
 93
        0
 40
0.045
309
GRIDFORMAT_END
 95
       32
302
GRIDFORMAT
  1
GRIDFORMAT_BEGIN
 90
        0
 91
        1
 62
     0
 92
       -2
340
0
 93
        0
 40
0.045
309
GRIDFORMAT_END
309
TABLEFORMAT_END
  1
CELLSTYLE_BEGIN
 90
        3
 91
        2
300
_DATA
309
CELLSTYLE_END
  0
XRECORD
  5
A3C93
102
{ACAD_REACTORS
330
A3C92
102
}
330
A3C92
100
AcDbXrecord
280
     1
102
RTVSPost2010Prop28
280
     1
102
RTVSPost2010PropOp28
 70
     1
102
RTVSPost2010Prop29
280
     1
102
RTVSPost2010PropOp29
 70
     1
102
RTVSPost2010Prop30
280
     0
102
RTVSPost2010PropOp30
 70
     1
102
RTVSPost2010Prop31
280
     0
102
RTVSPost2010PropOp31
 70
     1
102
RTVSPost2010Prop32
280
     0
102
RTVSPost2010PropOp32
 70
     1
102
RTVSPost2010Prop33
280
     0
102
RTVSPost2010PropOp33
 70
     1
102
RTVSPost2010Prop34
280
     0
102
RTVSPost2010PropOp34
 70
     1
102
RTVSPost2010Prop35
280
     0
102
RTVSPost2010PropOp35
 70
     1
102
RTVSPost2010Prop36
280
     0
102
RTVSPost2010PropOp36
 70
     1
102
RTVSPost2010Prop37
 90
       50
102
RTVSPost2010PropOp37
 70
     1
102
RTVSPost2010Prop38
140
0.0
102
RTVSPost2010PropOp38
 70
     1
102
RTVSPost2010Prop39
140
1.0
102
RTVSPost2010PropOp39
 70
     1
102
RTVSPost2010Prop40
 90
        0
102
RTVSPost2010PropOp40
 70
     1
102
RTVSPost2010Prop41ColorIndex
 90
       18
102
RTVSPost2010Prop41ColorRGB
 90
        0
102
RTVSPost2010PropOp41
 70
     1
102
RTVSPost2010Prop42
 90
       50
102
RTVSPost2010PropOp42
 70
     1
102
RTVSPost2010Prop43
 90
        3
102
RTVSPost2010PropOp43
 70
     1
102
RTVSPost2010Prop44ColorIndex
 90
        5
102
RTVSPost2010Prop44ColorRGB
 90
      255
102
RTVSPost2010PropOp44
 70
     1
102
RTVSPost2010Prop45
280
     0
102
RTVSPost2010PropOp45
 70
     1
102
RTVSPost2010Prop46
 90
       50
102
RTVSPost2010PropOp46
 70
     1
102
RTVSPost2010Prop47
 90
       50
102
RTVSPost2010PropOp47
 70
     1
102
RTVSPost2010Prop48
 90
       50
102
RTVSPost2010PropOp48
 70
     1
102
RTVSPost2010Prop49
280
     0
102
RTVSPost2010PropOp49
 70
     1
102
RTVSPost2010Prop50
 90
       50
102
RTVSPost2010PropOp50
 70
     1
102
RTVSPost2010Prop51ColorIndex
 90
      256
102
RTVSPost2010Prop51ColorRGB
 90
-16777216
102
RTVSPost2010PropOp51
 70
     0
102
RTVSPost2010Prop52
140
1.0
102
RTVSPost2010PropOp52
 70
     0
102
RTVSPost2010Prop53
 90
        2
102
RTVSPost2010PropOp53
 70
     1
102
RTVSPost2010Prop54
  1
strokes_ogs.tif
102
RTVSPost2010PropOp54
 70
     1
102
RTVSPost2010Prop55
280
     0
102
RTVSPost2010PropOp55
 70
     1
102
RTVSPost2010Prop56
140
1.0
102
RTVSPost2010PropOp56
 70
     1
102
RTVSPost2010Prop57
140
1.0
102
RTVSPost2010PropOp57
 70
     1
  0
XRECORD
  5
A3C97
102
{ACAD_REACTORS
330
A3C96
102
}
330
A3C96
100
AcDbXrecord
280
     1
102
RTVSPost2010Prop28
280
     0
102
RTVSPost2010PropOp28
 70
     1
102
RTVSPost2010Prop29
280
     1
102
RTVSPost2010PropOp29
 70
     1
102
RTVSPost2010Prop30
280
     1
102
RTVSPost2010PropOp30
 70
     1
102
RTVSPost2010Prop31
280
     0
102
RTVSPost2010PropOp31
 70
     1
102
RTVSPost2010Prop32
280
     0
102
RTVSPost2010PropOp32
 70
     1
102
RTVSPost2010Prop33
280
     0
102
RTVSPost2010PropOp33
 70
     1
102
RTVSPost2010Prop34
280
     0
102
RTVSPost2010PropOp34
 70
     1
102
RTVSPost2010Prop35
280
     0
102
RTVSPost2010PropOp35
 70
     1
102
RTVSPost2010Prop36
280
     0
102
RTVSPost2010PropOp36
 70
     1
102
RTVSPost2010Prop37
 90
       50
102
RTVSPost2010PropOp37
 70
     1
102
RTVSPost2010Prop38
140
0.0
102
RTVSPost2010PropOp38
 70
     1
102
RTVSPost2010Prop39
140
1.0
102
RTVSPost2010PropOp39
 70
     1
102
RTVSPost2010Prop40
 90
        0
102
RTVSPost2010PropOp40
 70
     1
102
RTVSPost2010Prop41ColorIndex
 90
       18
102
RTVSPost2010Prop41ColorRGB
 90
        0
102
RTVSPost2010PropOp41
 70
     1
102
RTVSPost2010Prop42
 90
       50
102
RTVSPost2010PropOp42
 70
     1
102
RTVSPost2010Prop43
 90
        3
102
RTVSPost2010PropOp43
 70
     1
102
RTVSPost2010Prop44ColorIndex
 90
        5
102
RTVSPost2010Prop44ColorRGB
 90
      255
102
RTVSPost2010PropOp44
 70
     1
102
RTVSPost2010Prop45
280
     0
102
RTVSPost2010PropOp45
 70
     1
102
RTVSPost2010Prop46
 90
       50
102
RTVSPost2010PropOp46
 70
     1
102
RTVSPost2010Prop47
 90
       50
102
RTVSPost2010PropOp47
 70
     1
102
RTVSPost2010Prop48
 90
       50
102
RTVSPost2010PropOp48
 70
     1
102
RTVSPost2010Prop49
280
     0
102
RTVSPost2010PropOp49
 70
     1
102
RTVSPost2010Prop50
 90
       50
102
RTVSPost2010PropOp50
 70
     1
102
RTVSPost2010Prop51ColorIndex
 90
      256
102
RTVSPost2010Prop51ColorRGB
 90
-16777216
102
RTVSPost2010PropOp51
 70
     0
102
RTVSPost2010Prop52
140
1.0
102
RTVSPost2010PropOp52
 70
     0
102
RTVSPost2010Prop53
 90
        2
102
RTVSPost2010PropOp53
 70
     1
102
RTVSPost2010Prop54
  1
strokes_ogs.tif
102
RTVSPost2010PropOp54
 70
     1
102
RTVSPost2010Prop55
280
     0
102
RTVSPost2010PropOp55
 70
     1
102
RTVSPost2010Prop56
140
1.0
102
RTVSPost2010PropOp56
 70
     1
102
RTVSPost2010Prop57
140
1.0
102
RTVSPost2010PropOp57
 70
     1
  0
XRECORD
  5
A3C95
102
{ACAD_REACTORS
330
A3C94
102
}
330
A3C94
100
AcDbXrecord
280
     1
102
RTVSPost2010Prop28
280
     0
102
RTVSPost2010PropOp28
 70
     1
102
RTVSPost2010Prop29
280
     1
102
RTVSPost2010PropOp29
 70
     1
102
RTVSPost2010Prop30
280
     1
102
RTVSPost2010PropOp30
 70
     1
102
RTVSPost2010Prop31
280
     0
102
RTVSPost2010PropOp31
 70
     1
102
RTVSPost2010Prop32
280
     0
102
RTVSPost2010PropOp32
 70
     1
102
RTVSPost2010Prop33
280
     0
102
RTVSPost2010PropOp33
 70
     1
102
RTVSPost2010Prop34
280
     0
102
RTVSPost2010PropOp34
 70
     1
102
RTVSPost2010Prop35
280
     0
102
RTVSPost2010PropOp35
 70
     1
102
RTVSPost2010Prop36
280
     0
102
RTVSPost2010PropOp36
 70
     1
102
RTVSPost2010Prop37
 90
       50
102
RTVSPost2010PropOp37
 70
     1
102
RTVSPost2010Prop38
140
0.0
102
RTVSPost2010PropOp38
 70
     1
102
RTVSPost2010Prop39
140
1.0
102
RTVSPost2010PropOp39
 70
     1
102
RTVSPost2010Prop40
 90
        0
102
RTVSPost2010PropOp40
 70
     1
102
RTVSPost2010Prop41ColorIndex
 90
       18
102
RTVSPost2010Prop41ColorRGB
 90
        0
102
RTVSPost2010PropOp41
 70
     1
102
RTVSPost2010Prop42
 90
       50
102
RTVSPost2010PropOp42
 70
     1
102
RTVSPost2010Prop43
 90
        3
102
RTVSPost2010PropOp43
 70
     1
102
RTVSPost2010Prop44ColorIndex
 90
        5
102
RTVSPost2010Prop44ColorRGB
 90
      255
102
RTVSPost2010PropOp44
 70
     1
102
RTVSPost2010Prop45
280
     0
102
RTVSPost2010PropOp45
 70
     1
102
RTVSPost2010Prop46
 90
       50
102
RTVSPost2010PropOp46
 70
     1
102
RTVSPost2010Prop47
 90
       50
102
RTVSPost2010PropOp47
 70
     1
102
RTVSPost2010Prop48
 90
       50
102
RTVSPost2010PropOp48
 70
     1
102
RTVSPost2010Prop49
280
     0
102
RTVSPost2010PropOp49
 70
     1
102
RTVSPost2010Prop50
 90
       50
102
RTVSPost2010PropOp50
 70
     1
102
RTVSPost2010Prop51ColorIndex
 90
      256
102
RTVSPost2010Prop51ColorRGB
 90
-16777216
102
RTVSPost2010PropOp51
 70
     0
102
RTVSPost2010Prop52
140
1.0
102
RTVSPost2010PropOp52
 70
     0
102
RTVSPost2010Prop53
 90
        2
102
RTVSPost2010PropOp53
 70
     1
102
RTVSPost2010Prop54
  1
strokes_ogs.tif
102
RTVSPost2010PropOp54
 70
     1
102
RTVSPost2010Prop55
280
     0
102
RTVSPost2010PropOp55
 70
     1
102
RTVSPost2010Prop56
140
1.0
102
RTVSPost2010PropOp56
 70
     1
102
RTVSPost2010Prop57
140
1.0
102
RTVSPost2010PropOp57
 70
     1
  0
XRECORD
  5
A3C91
102
{ACAD_REACTORS
330
A3C90
102
}
330
A3C90
100
AcDbXrecord
280
     1
102
RTVSPost2010Prop28
280
     0
102
RTVSPost2010PropOp28
 70
     1
102
RTVSPost2010Prop29
280
     1
102
RTVSPost2010PropOp29
 70
     1
102
RTVSPost2010Prop30
280
     1
102
RTVSPost2010PropOp30
 70
     1
102
RTVSPost2010Prop31
280
     0
102
RTVSPost2010PropOp31
 70
     1
102
RTVSPost2010Prop32
280
     0
102
RTVSPost2010PropOp32
 70
     1
102
RTVSPost2010Prop33
280
     0
102
RTVSPost2010PropOp33
 70
     1
102
RTVSPost2010Prop34
280
     0
102
RTVSPost2010PropOp34
 70
     1
102
RTVSPost2010Prop35
280
     0
102
RTVSPost2010PropOp35
 70
     1
102
RTVSPost2010Prop36
280
     0
102
RTVSPost2010PropOp36
 70
     1
102
RTVSPost2010Prop37
 90
       50
102
RTVSPost2010PropOp37
 70
     1
102
RTVSPost2010Prop38
140
0.0
102
RTVSPost2010PropOp38
 70
     1
102
RTVSPost2010Prop39
140
1.0
102
RTVSPost2010PropOp39
 70
     1
102
RTVSPost2010Prop40
 90
        0
102
RTVSPost2010PropOp40
 70
     1
102
RTVSPost2010Prop41ColorIndex
 90
       18
102
RTVSPost2010Prop41ColorRGB
 90
        0
102
RTVSPost2010PropOp41
 70
     1
102
RTVSPost2010Prop42
 90
       50
102
RTVSPost2010PropOp42
 70
     1
102
RTVSPost2010Prop43
 90
        3
102
RTVSPost2010PropOp43
 70
     1
102
RTVSPost2010Prop44ColorIndex
 90
        5
102
RTVSPost2010Prop44ColorRGB
 90
      255
102
RTVSPost2010PropOp44
 70
     1
102
RTVSPost2010Prop45
280
     0
102
RTVSPost2010PropOp45
 70
     1
102
RTVSPost2010Prop46
 90
       50
102
RTVSPost2010PropOp46
 70
     1
102
RTVSPost2010Prop47
 90
       50
102
RTVSPost2010PropOp47
 70
     1
102
RTVSPost2010Prop48
 90
       50
102
RTVSPost2010PropOp48
 70
     1
102
RTVSPost2010Prop49
280
     0
102
RTVSPost2010PropOp49
 70
     1
102
RTVSPost2010Prop50
 90
       50
102
RTVSPost2010PropOp50
 70
     1
102
RTVSPost2010Prop51ColorIndex
 90
      256
102
RTVSPost2010Prop51ColorRGB
 90
-16777216
102
RTVSPost2010PropOp51
 70
     0
102
RTVSPost2010Prop52
140
1.0
102
RTVSPost2010PropOp52
 70
     0
102
RTVSPost2010Prop53
 90
        2
102
RTVSPost2010PropOp53
 70
     1
102
RTVSPost2010Prop54
  1
strokes_ogs.tif
102
RTVSPost2010PropOp54
 70
     1
102
RTVSPost2010Prop55
280
     0
102
RTVSPost2010PropOp55
 70
     1
102
RTVSPost2010Prop56
140
1.0
102
RTVSPost2010PropOp56
 70
     1
102
RTVSPost2010Prop57
140
1.0
102
RTVSPost2010PropOp57
 70
     1
  0
XRECORD
  5
A3C9F
102
{ACAD_REACTORS
330
A3C9E
102
}
330
A3C9E
100
AcDbXrecord
280
     1
102
RTVSPost2010Prop28
280
     0
102
RTVSPost2010PropOp28
 70
     1
102
RTVSPost2010Prop29
280
     1
102
RTVSPost2010PropOp29
 70
     1
102
RTVSPost2010Prop30
280
     1
102
RTVSPost2010PropOp30
 70
     1
102
RTVSPost2010Prop31
280
     0
102
RTVSPost2010PropOp31
 70
     1
102
RTVSPost2010Prop32
280
     0
102
RTVSPost2010PropOp32
 70
     1
102
RTVSPost2010Prop33
280
     0
102
RTVSPost2010PropOp33
 70
     1
102
RTVSPost2010Prop34
280
     0
102
RTVSPost2010PropOp34
 70
     1
102
RTVSPost2010Prop35
280
     0
102
RTVSPost2010PropOp35
 70
     1
102
RTVSPost2010Prop36
280
     0
102
RTVSPost2010PropOp36
 70
     1
102
RTVSPost2010Prop37
 90
       50
102
RTVSPost2010PropOp37
 70
     1
102
RTVSPost2010Prop38
140
0.0
102
RTVSPost2010PropOp38
 70
     1
102
RTVSPost2010Prop39
140
1.0
102
RTVSPost2010PropOp39
 70
     1
102
RTVSPost2010Prop40
 90
        0
102
RTVSPost2010PropOp40
 70
     1
102
RTVSPost2010Prop41ColorIndex
 90
       18
102
RTVSPost2010Prop41ColorRGB
 90
        0
102
RTVSPost2010PropOp41
 70
     1
102
RTVSPost2010Prop42
 90
       50
102
RTVSPost2010PropOp42
 70
     1
102
RTVSPost2010Prop43
 90
        3
102
RTVSPost2010PropOp43
 70
     1
102
RTVSPost2010Prop44ColorIndex
 90
        5
102
RTVSPost2010Prop44ColorRGB
 90
      255
102
RTVSPost2010PropOp44
 70
     1
102
RTVSPost2010Prop45
280
     0
102
RTVSPost2010PropOp45
 70
     1
102
RTVSPost2010Prop46
 90
       50
102
RTVSPost2010PropOp46
 70
     1
102
RTVSPost2010Prop47
 90
       50
102
RTVSPost2010PropOp47
 70
     1
102
RTVSPost2010Prop48
 90
       50
102
RTVSPost2010PropOp48
 70
     1
102
RTVSPost2010Prop49
280
     0
102
RTVSPost2010PropOp49
 70
     1
102
RTVSPost2010Prop50
 90
       50
102
RTVSPost2010PropOp50
 70
     1
102
RTVSPost2010Prop51ColorIndex
 90
      256
102
RTVSPost2010Prop51ColorRGB
 90
-16777216
102
RTVSPost2010PropOp51
 70
     0
102
RTVSPost2010Prop52
140
1.0
102
RTVSPost2010PropOp52
 70
     0
102
RTVSPost2010Prop53
 90
        2
102
RTVSPost2010PropOp53
 70
     1
102
RTVSPost2010Prop54
  1
strokes_ogs.tif
102
RTVSPost2010PropOp54
 70
     1
102
RTVSPost2010Prop55
280
     0
102
RTVSPost2010PropOp55
 70
     1
102
RTVSPost2010Prop56
140
1.0
102
RTVSPost2010PropOp56
 70
     1
102
RTVSPost2010Prop57
140
1.0
102
RTVSPost2010PropOp57
 70
     1
  0
XRECORD
  5
A3CA7
102
{ACAD_REACTORS
330
A3CA6
102
}
330
A3CA6
100
AcDbXrecord
280
     1
102
RTVSPost2010Prop28
280
     0
102
RTVSPost2010PropOp28
 70
     1
102
RTVSPost2010Prop29
280
     1
102
RTVSPost2010PropOp29
 70
     1
102
RTVSPost2010Prop30
280
     1
102
RTVSPost2010PropOp30
 70
     1
102
RTVSPost2010Prop31
280
     0
102
RTVSPost2010PropOp31
 70
     1
102
RTVSPost2010Prop32
280
     0
102
RTVSPost2010PropOp32
 70
     1
102
RTVSPost2010Prop33
280
     0
102
RTVSPost2010PropOp33
 70
     1
102
RTVSPost2010Prop34
280
     0
102
RTVSPost2010PropOp34
 70
     1
102
RTVSPost2010Prop35
280
     0
102
RTVSPost2010PropOp35
 70
     1
102
RTVSPost2010Prop36
280
     0
102
RTVSPost2010PropOp36
 70
     1
102
RTVSPost2010Prop37
 90
       50
102
RTVSPost2010PropOp37
 70
     1
102
RTVSPost2010Prop38
140
0.0
102
RTVSPost2010PropOp38
 70
     1
102
RTVSPost2010Prop39
140
1.0
102
RTVSPost2010PropOp39
 70
     1
102
RTVSPost2010Prop40
 90
        0
102
RTVSPost2010PropOp40
 70
     1
102
RTVSPost2010Prop41ColorIndex
 90
       18
102
RTVSPost2010Prop41ColorRGB
 90
        0
102
RTVSPost2010PropOp41
 70
     1
102
RTVSPost2010Prop42
 90
       50
102
RTVSPost2010PropOp42
 70
     1
102
RTVSPost2010Prop43
 90
        3
102
RTVSPost2010PropOp43
 70
     1
102
RTVSPost2010Prop44ColorIndex
 90
        5
102
RTVSPost2010Prop44ColorRGB
 90
      255
102
RTVSPost2010PropOp44
 70
     1
102
RTVSPost2010Prop45
280
     0
102
RTVSPost2010PropOp45
 70
     1
102
RTVSPost2010Prop46
 90
       50
102
RTVSPost2010PropOp46
 70
     1
102
RTVSPost2010Prop47
 90
       50
102
RTVSPost2010PropOp47
 70
     1
102
RTVSPost2010Prop48
 90
       50
102
RTVSPost2010PropOp48
 70
     1
102
RTVSPost2010Prop49
280
     0
102
RTVSPost2010PropOp49
 70
     1
102
RTVSPost2010Prop50
 90
       50
102
RTVSPost2010PropOp50
 70
     1
102
RTVSPost2010Prop51ColorIndex
 90
      256
102
RTVSPost2010Prop51ColorRGB
 90
-16777216
102
RTVSPost2010PropOp51
 70
     0
102
RTVSPost2010Prop52
140
1.0
102
RTVSPost2010PropOp52
 70
     0
102
RTVSPost2010Prop53
 90
        2
102
RTVSPost2010PropOp53
 70
     1
102
RTVSPost2010Prop54
  1
strokes_ogs.tif
102
RTVSPost2010PropOp54
 70
     1
102
RTVSPost2010Prop55
280
     0
102
RTVSPost2010PropOp55
 70
     1
102
RTVSPost2010Prop56
140
1.0
102
RTVSPost2010PropOp56
 70
     1
102
RTVSPost2010Prop57
140
1.0
102
RTVSPost2010PropOp57
 70
     1
  0
XRECORD
  5
A3C99
102
{ACAD_REACTORS
330
A3C98
102
}
330
A3C98
100
AcDbXrecord
280
     1
102
RTVSPost2010Prop28
280
     0
102
RTVSPost2010PropOp28
 70
     1
102
RTVSPost2010Prop29
280
     1
102
RTVSPost2010PropOp29
 70
     1
102
RTVSPost2010Prop30
280
     1
102
RTVSPost2010PropOp30
 70
     1
102
RTVSPost2010Prop31
280
     0
102
RTVSPost2010PropOp31
 70
     1
102
RTVSPost2010Prop32
280
     0
102
RTVSPost2010PropOp32
 70
     1
102
RTVSPost2010Prop33
280
     0
102
RTVSPost2010PropOp33
 70
     1
102
RTVSPost2010Prop34
280
     0
102
RTVSPost2010PropOp34
 70
     1
102
RTVSPost2010Prop35
280
     0
102
RTVSPost2010PropOp35
 70
     1
102
RTVSPost2010Prop36
280
     0
102
RTVSPost2010PropOp36
 70
     1
102
RTVSPost2010Prop37
 90
       50
102
RTVSPost2010PropOp37
 70
     1
102
RTVSPost2010Prop38
140
0.0
102
RTVSPost2010PropOp38
 70
     1
102
RTVSPost2010Prop39
140
1.0
102
RTVSPost2010PropOp39
 70
     1
102
RTVSPost2010Prop40
 90
        0
102
RTVSPost2010PropOp40
 70
     1
102
RTVSPost2010Prop41ColorIndex
 90
       18
102
RTVSPost2010Prop41ColorRGB
 90
        0
102
RTVSPost2010PropOp41
 70
     1
102
RTVSPost2010Prop42
 90
       50
102
RTVSPost2010PropOp42
 70
     1
102
RTVSPost2010Prop43
 90
        3
102
RTVSPost2010PropOp43
 70
     1
102
RTVSPost2010Prop44ColorIndex
 90
        5
102
RTVSPost2010Prop44ColorRGB
 90
      255
102
RTVSPost2010PropOp44
 70
     1
102
RTVSPost2010Prop45
280
     0
102
RTVSPost2010PropOp45
 70
     1
102
RTVSPost2010Prop46
 90
       50
102
RTVSPost2010PropOp46
 70
     1
102
RTVSPost2010Prop47
 90
       50
102
RTVSPost2010PropOp47
 70
     1
102
RTVSPost2010Prop48
 90
       50
102
RTVSPost2010PropOp48
 70
     1
102
RTVSPost2010Prop49
280
     0
102
RTVSPost2010PropOp49
 70
     1
102
RTVSPost2010Prop50
 90
       50
102
RTVSPost2010PropOp50
 70
     1
102
RTVSPost2010Prop51ColorIndex
 90
      256
102
RTVSPost2010Prop51ColorRGB
 90
-16777216
102
RTVSPost2010PropOp51
 70
     0
102
RTVSPost2010Prop52
140
1.0
102
RTVSPost2010PropOp52
 70
     0
102
RTVSPost2010Prop53
 90
        2
102
RTVSPost2010PropOp53
 70
     1
102
RTVSPost2010Prop54
  1
strokes_ogs.tif
102
RTVSPost2010PropOp54
 70
     1
102
RTVSPost2010Prop55
280
     0
102
RTVSPost2010PropOp55
 70
     1
102
RTVSPost2010Prop56
140
1.0
102
RTVSPost2010PropOp56
 70
     1
102
RTVSPost2010Prop57
140
1.0
102
RTVSPost2010PropOp57
 70
     1
  0
XRECORD
  5
A3C9D
102
{ACAD_REACTORS
330
A3C9C
102
}
330
A3C9C
100
AcDbXrecord
280
     1
102
RTVSPost2010Prop28
280
     0
102
RTVSPost2010PropOp28
 70
     1
102
RTVSPost2010Prop29
280
     1
102
RTVSPost2010PropOp29
 70
     1
102
RTVSPost2010Prop30
280
     1
102
RTVSPost2010PropOp30
 70
     1
102
RTVSPost2010Prop31
280
     0
102
RTVSPost2010PropOp31
 70
     1
102
RTVSPost2010Prop32
280
     0
102
RTVSPost2010PropOp32
 70
     1
102
RTVSPost2010Prop33
280
     0
102
RTVSPost2010PropOp33
 70
     1
102
RTVSPost2010Prop34
280
     0
102
RTVSPost2010PropOp34
 70
     1
102
RTVSPost2010Prop35
280
     0
102
RTVSPost2010PropOp35
 70
     1
102
RTVSPost2010Prop36
280
     0
102
RTVSPost2010PropOp36
 70
     1
102
RTVSPost2010Prop37
 90
       50
102
RTVSPost2010PropOp37
 70
     1
102
RTVSPost2010Prop38
140
0.0
102
RTVSPost2010PropOp38
 70
     1
102
RTVSPost2010Prop39
140
1.0
102
RTVSPost2010PropOp39
 70
     1
102
RTVSPost2010Prop40
 90
        0
102
RTVSPost2010PropOp40
 70
     1
102
RTVSPost2010Prop41ColorIndex
 90
       18
102
RTVSPost2010Prop41ColorRGB
 90
        0
102
RTVSPost2010PropOp41
 70
     1
102
RTVSPost2010Prop42
 90
       50
102
RTVSPost2010PropOp42
 70
     1
102
RTVSPost2010Prop43
 90
        3
102
RTVSPost2010PropOp43
 70
     1
102
RTVSPost2010Prop44ColorIndex
 90
        5
102
RTVSPost2010Prop44ColorRGB
 90
      255
102
RTVSPost2010PropOp44
 70
     1
102
RTVSPost2010Prop45
280
     0
102
RTVSPost2010PropOp45
 70
     1
102
RTVSPost2010Prop46
 90
       50
102
RTVSPost2010PropOp46
 70
     1
102
RTVSPost2010Prop47
 90
       50
102
RTVSPost2010PropOp47
 70
     1
102
RTVSPost2010Prop48
 90
       50
102
RTVSPost2010PropOp48
 70
     1
102
RTVSPost2010Prop49
280
     0
102
RTVSPost2010PropOp49
 70
     1
102
RTVSPost2010Prop50
 90
       50
102
RTVSPost2010PropOp50
 70
     1
102
RTVSPost2010Prop51ColorIndex
 90
      256
102
RTVSPost2010Prop51ColorRGB
 90
-16777216
102
RTVSPost2010PropOp51
 70
     0
102
RTVSPost2010Prop52
140
1.0
102
RTVSPost2010PropOp52
 70
     0
102
RTVSPost2010Prop53
 90
        2
102
RTVSPost2010PropOp53
 70
     1
102
RTVSPost2010Prop54
  1
strokes_ogs.tif
102
RTVSPost2010PropOp54
 70
     1
102
RTVSPost2010Prop55
280
     0
102
RTVSPost2010PropOp55
 70
     1
102
RTVSPost2010Prop56
140
1.0
102
RTVSPost2010PropOp56
 70
     1
102
RTVSPost2010Prop57
140
1.0
102
RTVSPost2010PropOp57
 70
     1
  0
XRECORD
  5
A3CAD
102
{ACAD_REACTORS
330
A3CAC
102
}
330
A3CAC
100
AcDbXrecord
280
     1
102
RTVSPost2010Prop28
280
     0
102
RTVSPost2010PropOp28
 70
     1
102
RTVSPost2010Prop29
280
     1
102
RTVSPost2010PropOp29
 70
     1
102
RTVSPost2010Prop30
280
     1
102
RTVSPost2010PropOp30
 70
     1
102
RTVSPost2010Prop31
280
     0
102
RTVSPost2010PropOp31
 70
     1
102
RTVSPost2010Prop32
280
     0
102
RTVSPost2010PropOp32
 70
     1
102
RTVSPost2010Prop33
280
     0
102
RTVSPost2010PropOp33
 70
     1
102
RTVSPost2010Prop34
280
     0
102
RTVSPost2010PropOp34
 70
     1
102
RTVSPost2010Prop35
280
     0
102
RTVSPost2010PropOp35
 70
     1
102
RTVSPost2010Prop36
280
     0
102
RTVSPost2010PropOp36
 70
     1
102
RTVSPost2010Prop37
 90
       50
102
RTVSPost2010PropOp37
 70
     1
102
RTVSPost2010Prop38
140
0.0
102
RTVSPost2010PropOp38
 70
     1
102
RTVSPost2010Prop39
140
1.0
102
RTVSPost2010PropOp39
 70
     1
102
RTVSPost2010Prop40
 90
        0
102
RTVSPost2010PropOp40
 70
     1
102
RTVSPost2010Prop41ColorIndex
 90
       18
102
RTVSPost2010Prop41ColorRGB
 90
        0
102
RTVSPost2010PropOp41
 70
     1
102
RTVSPost2010Prop42
 90
       50
102
RTVSPost2010PropOp42
 70
     1
102
RTVSPost2010Prop43
 90
        3
102
RTVSPost2010PropOp43
 70
     1
102
RTVSPost2010Prop44ColorIndex
 90
        5
102
RTVSPost2010Prop44ColorRGB
 90
      255
102
RTVSPost2010PropOp44
 70
     1
102
RTVSPost2010Prop45
280
     0
102
RTVSPost2010PropOp45
 70
     1
102
RTVSPost2010Prop46
 90
       50
102
RTVSPost2010PropOp46
 70
     1
102
RTVSPost2010Prop47
 90
       50
102
RTVSPost2010PropOp47
 70
     1
102
RTVSPost2010Prop48
 90
       50
102
RTVSPost2010PropOp48
 70
     1
102
RTVSPost2010Prop49
280
     0
102
RTVSPost2010PropOp49
 70
     1
102
RTVSPost2010Prop50
 90
       50
102
RTVSPost2010PropOp50
 70
     1
102
RTVSPost2010Prop51ColorIndex
 90
      256
102
RTVSPost2010Prop51ColorRGB
 90
-16777216
102
RTVSPost2010PropOp51
 70
     0
102
RTVSPost2010Prop52
140
1.0
102
RTVSPost2010PropOp52
 70
     0
102
RTVSPost2010Prop53
 90
        2
102
RTVSPost2010PropOp53
 70
     1
102
RTVSPost2010Prop54
  1
strokes_ogs.tif
102
RTVSPost2010PropOp54
 70
     1
102
RTVSPost2010Prop55
280
     0
102
RTVSPost2010PropOp55
 70
     1
102
RTVSPost2010Prop56
140
1.0
102
RTVSPost2010PropOp56
 70
     1
102
RTVSPost2010Prop57
140
1.0
102
RTVSPost2010PropOp57
 70
     1
  0
XRECORD
  5
A3CA5
102
{ACAD_REACTORS
330
A3CA4
102
}
330
A3CA4
100
AcDbXrecord
280
     1
102
RTVSPost2010Prop28
280
     0
102
RTVSPost2010PropOp28
 70
     1
102
RTVSPost2010Prop29
280
     1
102
RTVSPost2010PropOp29
 70
     1
102
RTVSPost2010Prop30
280
     1
102
RTVSPost2010PropOp30
 70
     1
102
RTVSPost2010Prop31
280
     0
102
RTVSPost2010PropOp31
 70
     1
102
RTVSPost2010Prop32
280
     0
102
RTVSPost2010PropOp32
 70
     1
102
RTVSPost2010Prop33
280
     0
102
RTVSPost2010PropOp33
 70
     1
102
RTVSPost2010Prop34
280
     0
102
RTVSPost2010PropOp34
 70
     1
102
RTVSPost2010Prop35
280
     0
102
RTVSPost2010PropOp35
 70
     1
102
RTVSPost2010Prop36
280
     0
102
RTVSPost2010PropOp36
 70
     1
102
RTVSPost2010Prop37
 90
       50
102
RTVSPost2010PropOp37
 70
     1
102
RTVSPost2010Prop38
140
0.0
102
RTVSPost2010PropOp38
 70
     1
102
RTVSPost2010Prop39
140
1.0
102
RTVSPost2010PropOp39
 70
     1
102
RTVSPost2010Prop40
 90
        0
102
RTVSPost2010PropOp40
 70
     1
102
RTVSPost2010Prop41ColorIndex
 90
       18
102
RTVSPost2010Prop41ColorRGB
 90
        0
102
RTVSPost2010PropOp41
 70
     1
102
RTVSPost2010Prop42
 90
       50
102
RTVSPost2010PropOp42
 70
     1
102
RTVSPost2010Prop43
 90
        3
102
RTVSPost2010PropOp43
 70
     1
102
RTVSPost2010Prop44ColorIndex
 90
        5
102
RTVSPost2010Prop44ColorRGB
 90
      255
102
RTVSPost2010PropOp44
 70
     1
102
RTVSPost2010Prop45
280
     0
102
RTVSPost2010PropOp45
 70
     1
102
RTVSPost2010Prop46
 90
       50
102
RTVSPost2010PropOp46
 70
     1
102
RTVSPost2010Prop47
 90
       50
102
RTVSPost2010PropOp47
 70
     1
102
RTVSPost2010Prop48
 90
       50
102
RTVSPost2010PropOp48
 70
     1
102
RTVSPost2010Prop49
280
     0
102
RTVSPost2010PropOp49
 70
     1
102
RTVSPost2010Prop50
 90
       50
102
RTVSPost2010PropOp50
 70
     1
102
RTVSPost2010Prop51ColorIndex
 90
      256
102
RTVSPost2010Prop51ColorRGB
 90
-16777216
102
RTVSPost2010PropOp51
 70
     0
102
RTVSPost2010Prop52
140
1.0
102
RTVSPost2010PropOp52
 70
     0
102
RTVSPost2010Prop53
 90
        2
102
RTVSPost2010PropOp53
 70
     1
102
RTVSPost2010Prop54
  1
strokes_ogs.tif
102
RTVSPost2010PropOp54
 70
     1
102
RTVSPost2010Prop55
280
     0
102
RTVSPost2010PropOp55
 70
     1
102
RTVSPost2010Prop56
140
1.0
102
RTVSPost2010PropOp56
 70
     1
102
RTVSPost2010Prop57
140
1.0
102
RTVSPost2010PropOp57
 70
     1
  0
XRECORD
  5
A3C89
102
{ACAD_REACTORS
330
A3C88
102
}
330
A3C88
100
AcDbXrecord
280
     1
102
RTVSPost2010Prop28
280
     0
102
RTVSPost2010PropOp28
 70
     1
102
RTVSPost2010Prop29
280
     1
102
RTVSPost2010PropOp29
 70
     1
102
RTVSPost2010Prop30
280
     1
102
RTVSPost2010PropOp30
 70
     1
102
RTVSPost2010Prop31
280
     0
102
RTVSPost2010PropOp31
 70
     1
102
RTVSPost2010Prop32
280
     0
102
RTVSPost2010PropOp32
 70
     1
102
RTVSPost2010Prop33
280
     0
102
RTVSPost2010PropOp33
 70
     1
102
RTVSPost2010Prop34
280
     0
102
RTVSPost2010PropOp34
 70
     1
102
RTVSPost2010Prop35
280
     0
102
RTVSPost2010PropOp35
 70
     1
102
RTVSPost2010Prop36
280
     0
102
RTVSPost2010PropOp36
 70
     1
102
RTVSPost2010Prop37
 90
       50
102
RTVSPost2010PropOp37
 70
     1
102
RTVSPost2010Prop38
140
0.0
102
RTVSPost2010PropOp38
 70
     1
102
RTVSPost2010Prop39
140
1.0
102
RTVSPost2010PropOp39
 70
     1
102
RTVSPost2010Prop40
 90
        0
102
RTVSPost2010PropOp40
 70
     1
102
RTVSPost2010Prop41ColorIndex
 90
       18
102
RTVSPost2010Prop41ColorRGB
 90
        0
102
RTVSPost2010PropOp41
 70
     1
102
RTVSPost2010Prop42
 90
       50
102
RTVSPost2010PropOp42
 70
     1
102
RTVSPost2010Prop43
 90
        3
102
RTVSPost2010PropOp43
 70
     1
102
RTVSPost2010Prop44ColorIndex
 90
        5
102
RTVSPost2010Prop44ColorRGB
 90
      255
102
RTVSPost2010PropOp44
 70
     1
102
RTVSPost2010Prop45
280
     0
102
RTVSPost2010PropOp45
 70
     1
102
RTVSPost2010Prop46
 90
       50
102
RTVSPost2010PropOp46
 70
     1
102
RTVSPost2010Prop47
 90
       50
102
RTVSPost2010PropOp47
 70
     1
102
RTVSPost2010Prop48
 90
       50
102
RTVSPost2010PropOp48
 70
     1
102
RTVSPost2010Prop49
280
     0
102
RTVSPost2010PropOp49
 70
     1
102
RTVSPost2010Prop50
 90
       50
102
RTVSPost2010PropOp50
 70
     1
102
RTVSPost2010Prop51ColorIndex
 90
      256
102
RTVSPost2010Prop51ColorRGB
 90
-16777216
102
RTVSPost2010PropOp51
 70
     0
102
RTVSPost2010Prop52
140
1.0
102
RTVSPost2010PropOp52
 70
     0
102
RTVSPost2010Prop53
 90
        2
102
RTVSPost2010PropOp53
 70
     1
102
RTVSPost2010Prop54
  1
strokes_ogs.tif
102
RTVSPost2010PropOp54
 70
     1
102
RTVSPost2010Prop55
280
     0
102
RTVSPost2010PropOp55
 70
     1
102
RTVSPost2010Prop56
140
1.0
102
RTVSPost2010PropOp56
 70
     1
102
RTVSPost2010Prop57
140
1.0
102
RTVSPost2010PropOp57
 70
     1
  0
XRECORD
  5
A3C8B
102
{ACAD_REACTORS
330
A3C8A
102
}
330
A3C8A
100
AcDbXrecord
280
     1
102
RTVSPost2010Prop28
280
     0
102
RTVSPost2010PropOp28
 70
     1
102
RTVSPost2010Prop29
280
     1
102
RTVSPost2010PropOp29
 70
     1
102
RTVSPost2010Prop30
280
     1
102
RTVSPost2010PropOp30
 70
     1
102
RTVSPost2010Prop31
280
     0
102
RTVSPost2010PropOp31
 70
     1
102
RTVSPost2010Prop32
280
     0
102
RTVSPost2010PropOp32
 70
     1
102
RTVSPost2010Prop33
280
     0
102
RTVSPost2010PropOp33
 70
     1
102
RTVSPost2010Prop34
280
     0
102
RTVSPost2010PropOp34
 70
     1
102
RTVSPost2010Prop35
280
     0
102
RTVSPost2010PropOp35
 70
     1
102
RTVSPost2010Prop36
280
     0
102
RTVSPost2010PropOp36
 70
     1
102
RTVSPost2010Prop37
 90
       50
102
RTVSPost2010PropOp37
 70
     1
102
RTVSPost2010Prop38
140
0.0
102
RTVSPost2010PropOp38
 70
     1
102
RTVSPost2010Prop39
140
1.0
102
RTVSPost2010PropOp39
 70
     1
102
RTVSPost2010Prop40
 90
        0
102
RTVSPost2010PropOp40
 70
     1
102
RTVSPost2010Prop41ColorIndex
 90
       18
102
RTVSPost2010Prop41ColorRGB
 90
        0
102
RTVSPost2010PropOp41
 70
     1
102
RTVSPost2010Prop42
 90
       50
102
RTVSPost2010PropOp42
 70
     1
102
RTVSPost2010Prop43
 90
        3
102
RTVSPost2010PropOp43
 70
     1
102
RTVSPost2010Prop44ColorIndex
 90
        5
102
RTVSPost2010Prop44ColorRGB
 90
      255
102
RTVSPost2010PropOp44
 70
     1
102
RTVSPost2010Prop45
280
     0
102
RTVSPost2010PropOp45
 70
     1
102
RTVSPost2010Prop46
 90
       50
102
RTVSPost2010PropOp46
 70
     1
102
RTVSPost2010Prop47
 90
       50
102
RTVSPost2010PropOp47
 70
     1
102
RTVSPost2010Prop48
 90
       50
102
RTVSPost2010PropOp48
 70
     1
102
RTVSPost2010Prop49
280
     0
102
RTVSPost2010PropOp49
 70
     1
102
RTVSPost2010Prop50
 90
       50
102
RTVSPost2010PropOp50
 70
     1
102
RTVSPost2010Prop51ColorIndex
 90
      256
102
RTVSPost2010Prop51ColorRGB
 90
-16777216
102
RTVSPost2010PropOp51
 70
     0
102
RTVSPost2010Prop52
140
1.0
102
RTVSPost2010PropOp52
 70
     0
102
RTVSPost2010Prop53
 90
        2
102
RTVSPost2010PropOp53
 70
     1
102
RTVSPost2010Prop54
  1
strokes_ogs.tif
102
RTVSPost2010PropOp54
 70
     1
102
RTVSPost2010Prop55
280
     0
102
RTVSPost2010PropOp55
 70
     1
102
RTVSPost2010Prop56
140
1.0
102
RTVSPost2010PropOp56
 70
     1
102
RTVSPost2010Prop57
140
1.0
102
RTVSPost2010PropOp57
 70
     1
  0
XRECORD
  5
A3C8D
102
{ACAD_REACTORS
330
A3C8C
102
}
330
A3C8C
100
AcDbXrecord
280
     1
102
RTVSPost2010Prop28
280
     0
102
RTVSPost2010PropOp28
 70
     1
102
RTVSPost2010Prop29
280
     1
102
RTVSPost2010PropOp29
 70
     1
102
RTVSPost2010Prop30
280
     1
102
RTVSPost2010PropOp30
 70
     1
102
RTVSPost2010Prop31
280
     0
102
RTVSPost2010PropOp31
 70
     1
102
RTVSPost2010Prop32
280
     0
102
RTVSPost2010PropOp32
 70
     1
102
RTVSPost2010Prop33
280
     0
102
RTVSPost2010PropOp33
 70
     1
102
RTVSPost2010Prop34
280
     0
102
RTVSPost2010PropOp34
 70
     1
102
RTVSPost2010Prop35
280
     0
102
RTVSPost2010PropOp35
 70
     1
102
RTVSPost2010Prop36
280
     0
102
RTVSPost2010PropOp36
 70
     1
102
RTVSPost2010Prop37
 90
       50
102
RTVSPost2010PropOp37
 70
     1
102
RTVSPost2010Prop38
140
0.0
102
RTVSPost2010PropOp38
 70
     1
102
RTVSPost2010Prop39
140
1.0
102
RTVSPost2010PropOp39
 70
     1
102
RTVSPost2010Prop40
 90
        0
102
RTVSPost2010PropOp40
 70
     1
102
RTVSPost2010Prop41ColorIndex
 90
       18
102
RTVSPost2010Prop41ColorRGB
 90
        0
102
RTVSPost2010PropOp41
 70
     1
102
RTVSPost2010Prop42
 90
       50
102
RTVSPost2010PropOp42
 70
     1
102
RTVSPost2010Prop43
 90
        3
102
RTVSPost2010PropOp43
 70
     1
102
RTVSPost2010Prop44ColorIndex
 90
        5
102
RTVSPost2010Prop44ColorRGB
 90
      255
102
RTVSPost2010PropOp44
 70
     1
102
RTVSPost2010Prop45
280
     0
102
RTVSPost2010PropOp45
 70
     1
102
RTVSPost2010Prop46
 90
       50
102
RTVSPost2010PropOp46
 70
     1
102
RTVSPost2010Prop47
 90
       50
102
RTVSPost2010PropOp47
 70
     1
102
RTVSPost2010Prop48
 90
       50
102
RTVSPost2010PropOp48
 70
     1
102
RTVSPost2010Prop49
280
     0
102
RTVSPost2010PropOp49
 70
     1
102
RTVSPost2010Prop50
 90
       50
102
RTVSPost2010PropOp50
 70
     1
102
RTVSPost2010Prop51ColorIndex
 90
      256
102
RTVSPost2010Prop51ColorRGB
 90
-16777216
102
RTVSPost2010PropOp51
 70
     0
102
RTVSPost2010Prop52
140
1.0
102
RTVSPost2010PropOp52
 70
     0
102
RTVSPost2010Prop53
 90
        2
102
RTVSPost2010PropOp53
 70
     1
102
RTVSPost2010Prop54
  1
strokes_ogs.tif
102
RTVSPost2010PropOp54
 70
     1
102
RTVSPost2010Prop55
280
     0
102
RTVSPost2010PropOp55
 70
     1
102
RTVSPost2010Prop56
140
1.0
102
RTVSPost2010PropOp56
 70
     1
102
RTVSPost2010Prop57
140
1.0
102
RTVSPost2010PropOp57
 70
     1
  0
XRECORD
  5
A3C8F
102
{ACAD_REACTORS
330
A3C8E
102
}
330
A3C8E
100
AcDbXrecord
280
     1
102
RTVSPost2010Prop28
280
     0
102
RTVSPost2010PropOp28
 70
     1
102
RTVSPost2010Prop29
280
     1
102
RTVSPost2010PropOp29
 70
     1
102
RTVSPost2010Prop30
280
     1
102
RTVSPost2010PropOp30
 70
     1
102
RTVSPost2010Prop31
280
     0
102
RTVSPost2010PropOp31
 70
     1
102
RTVSPost2010Prop32
280
     0
102
RTVSPost2010PropOp32
 70
     1
102
RTVSPost2010Prop33
280
     0
102
RTVSPost2010PropOp33
 70
     1
102
RTVSPost2010Prop34
280
     0
102
RTVSPost2010PropOp34
 70
     1
102
RTVSPost2010Prop35
280
     0
102
RTVSPost2010PropOp35
 70
     1
102
RTVSPost2010Prop36
280
     0
102
RTVSPost2010PropOp36
 70
     1
102
RTVSPost2010Prop37
 90
       50
102
RTVSPost2010PropOp37
 70
     1
102
RTVSPost2010Prop38
140
0.0
102
RTVSPost2010PropOp38
 70
     1
102
RTVSPost2010Prop39
140
1.0
102
RTVSPost2010PropOp39
 70
     1
102
RTVSPost2010Prop40
 90
        0
102
RTVSPost2010PropOp40
 70
     1
102
RTVSPost2010Prop41ColorIndex
 90
       18
102
RTVSPost2010Prop41ColorRGB
 90
        0
102
RTVSPost2010PropOp41
 70
     1
102
RTVSPost2010Prop42
 90
       50
102
RTVSPost2010PropOp42
 70
     1
102
RTVSPost2010Prop43
 90
        3
102
RTVSPost2010PropOp43
 70
     1
102
RTVSPost2010Prop44ColorIndex
 90
        5
102
RTVSPost2010Prop44ColorRGB
 90
      255
102
RTVSPost2010PropOp44
 70
     1
102
RTVSPost2010Prop45
280
     0
102
RTVSPost2010PropOp45
 70
     1
102
RTVSPost2010Prop46
 90
       50
102
RTVSPost2010PropOp46
 70
     1
102
RTVSPost2010Prop47
 90
       50
102
RTVSPost2010PropOp47
 70
     1
102
RTVSPost2010Prop48
 90
       50
102
RTVSPost2010PropOp48
 70
     1
102
RTVSPost2010Prop49
280
     0
102
RTVSPost2010PropOp49
 70
     1
102
RTVSPost2010Prop50
 90
       50
102
RTVSPost2010PropOp50
 70
     1
102
RTVSPost2010Prop51ColorIndex
 90
      256
102
RTVSPost2010Prop51ColorRGB
 90
-16777216
102
RTVSPost2010PropOp51
 70
     0
102
RTVSPost2010Prop52
140
1.0
102
RTVSPost2010PropOp52
 70
     0
102
RTVSPost2010Prop53
 90
        2
102
RTVSPost2010PropOp53
 70
     1
102
RTVSPost2010Prop54
  1
strokes_ogs.tif
102
RTVSPost2010PropOp54
 70
     1
102
RTVSPost2010Prop55
280
     0
102
RTVSPost2010PropOp55
 70
     1
102
RTVSPost2010Prop56
140
1.0
102
RTVSPost2010PropOp56
 70
     1
102
RTVSPost2010Prop57
140
1.0
102
RTVSPost2010PropOp57
 70
     1
  0
XRECORD
  5
A3CB1
102
{ACAD_REACTORS
330
A3CB0
102
}
330
A3CB0
100
AcDbXrecord
280
     1
102
RTVSPost2010Prop28
280
     0
102
RTVSPost2010PropOp28
 70
     1
102
RTVSPost2010Prop29
280
     1
102
RTVSPost2010PropOp29
 70
     1
102
RTVSPost2010Prop30
280
     1
102
RTVSPost2010PropOp30
 70
     1
102
RTVSPost2010Prop31
280
     0
102
RTVSPost2010PropOp31
 70
     1
102
RTVSPost2010Prop32
280
     0
102
RTVSPost2010PropOp32
 70
     1
102
RTVSPost2010Prop33
280
     0
102
RTVSPost2010PropOp33
 70
     1
102
RTVSPost2010Prop34
280
     0
102
RTVSPost2010PropOp34
 70
     1
102
RTVSPost2010Prop35
280
     0
102
RTVSPost2010PropOp35
 70
     1
102
RTVSPost2010Prop36
280
     0
102
RTVSPost2010PropOp36
 70
     1
102
RTVSPost2010Prop37
 90
       50
102
RTVSPost2010PropOp37
 70
     1
102
RTVSPost2010Prop38
140
0.0
102
RTVSPost2010PropOp38
 70
     1
102
RTVSPost2010Prop39
140
1.0
102
RTVSPost2010PropOp39
 70
     1
102
RTVSPost2010Prop40
 90
        0
102
RTVSPost2010PropOp40
 70
     1
102
RTVSPost2010Prop41ColorIndex
 90
       18
102
RTVSPost2010Prop41ColorRGB
 90
        0
102
RTVSPost2010PropOp41
 70
     1
102
RTVSPost2010Prop42
 90
       50
102
RTVSPost2010PropOp42
 70
     1
102
RTVSPost2010Prop43
 90
        3
102
RTVSPost2010PropOp43
 70
     1
102
RTVSPost2010Prop44ColorIndex
 90
        5
102
RTVSPost2010Prop44ColorRGB
 90
      255
102
RTVSPost2010PropOp44
 70
     1
102
RTVSPost2010Prop45
280
     0
102
RTVSPost2010PropOp45
 70
     1
102
RTVSPost2010Prop46
 90
       50
102
RTVSPost2010PropOp46
 70
     1
102
RTVSPost2010Prop47
 90
       50
102
RTVSPost2010PropOp47
 70
     1
102
RTVSPost2010Prop48
 90
       50
102
RTVSPost2010PropOp48
 70
     1
102
RTVSPost2010Prop49
280
     0
102
RTVSPost2010PropOp49
 70
     1
102
RTVSPost2010Prop50
 90
       50
102
RTVSPost2010PropOp50
 70
     1
102
RTVSPost2010Prop51ColorIndex
 90
      256
102
RTVSPost2010Prop51ColorRGB
 90
-16777216
102
RTVSPost2010PropOp51
 70
     0
102
RTVSPost2010Prop52
140
1.0
102
RTVSPost2010PropOp52
 70
     0
102
RTVSPost2010Prop53
 90
        2
102
RTVSPost2010PropOp53
 70
     1
102
RTVSPost2010Prop54
  1
strokes_ogs.tif
102
RTVSPost2010PropOp54
 70
     1
102
RTVSPost2010Prop55
280
     0
102
RTVSPost2010PropOp55
 70
     1
102
RTVSPost2010Prop56
140
1.0
102
RTVSPost2010PropOp56
 70
     1
102
RTVSPost2010Prop57
140
1.0
102
RTVSPost2010PropOp57
 70
     1
  0
XRECORD
  5
A3CA9
102
{ACAD_REACTORS
330
A3CA8
102
}
330
A3CA8
100
AcDbXrecord
280
     1
102
RTVSPost2010Prop28
280
     0
102
RTVSPost2010PropOp28
 70
     1
102
RTVSPost2010Prop29
280
     1
102
RTVSPost2010PropOp29
 70
     1
102
RTVSPost2010Prop30
280
     1
102
RTVSPost2010PropOp30
 70
     1
102
RTVSPost2010Prop31
280
     0
102
RTVSPost2010PropOp31
 70
     1
102
RTVSPost2010Prop32
280
     0
102
RTVSPost2010PropOp32
 70
     1
102
RTVSPost2010Prop33
280
     0
102
RTVSPost2010PropOp33
 70
     1
102
RTVSPost2010Prop34
280
     0
102
RTVSPost2010PropOp34
 70
     1
102
RTVSPost2010Prop35
280
     0
102
RTVSPost2010PropOp35
 70
     1
102
RTVSPost2010Prop36
280
     0
102
RTVSPost2010PropOp36
 70
     1
102
RTVSPost2010Prop37
 90
       50
102
RTVSPost2010PropOp37
 70
     1
102
RTVSPost2010Prop38
140
0.0
102
RTVSPost2010PropOp38
 70
     1
102
RTVSPost2010Prop39
140
1.0
102
RTVSPost2010PropOp39
 70
     1
102
RTVSPost2010Prop40
 90
        0
102
RTVSPost2010PropOp40
 70
     1
102
RTVSPost2010Prop41ColorIndex
 90
       18
102
RTVSPost2010Prop41ColorRGB
 90
        0
102
RTVSPost2010PropOp41
 70
     1
102
RTVSPost2010Prop42
 90
       50
102
RTVSPost2010PropOp42
 70
     1
102
RTVSPost2010Prop43
 90
        3
102
RTVSPost2010PropOp43
 70
     1
102
RTVSPost2010Prop44ColorIndex
 90
        5
102
RTVSPost2010Prop44ColorRGB
 90
      255
102
RTVSPost2010PropOp44
 70
     1
102
RTVSPost2010Prop45
280
     0
102
RTVSPost2010PropOp45
 70
     1
102
RTVSPost2010Prop46
 90
       50
102
RTVSPost2010PropOp46
 70
     1
102
RTVSPost2010Prop47
 90
       50
102
RTVSPost2010PropOp47
 70
     1
102
RTVSPost2010Prop48
 90
       50
102
RTVSPost2010PropOp48
 70
     1
102
RTVSPost2010Prop49
280
     0
102
RTVSPost2010PropOp49
 70
     1
102
RTVSPost2010Prop50
 90
       50
102
RTVSPost2010PropOp50
 70
     1
102
RTVSPost2010Prop51ColorIndex
 90
      256
102
RTVSPost2010Prop51ColorRGB
 90
-16777216
102
RTVSPost2010PropOp51
 70
     0
102
RTVSPost2010Prop52
140
1.0
102
RTVSPost2010PropOp52
 70
     0
102
RTVSPost2010Prop53
 90
        2
102
RTVSPost2010PropOp53
 70
     1
102
RTVSPost2010Prop54
  1
strokes_ogs.tif
102
RTVSPost2010PropOp54
 70
     1
102
RTVSPost2010Prop55
280
     0
102
RTVSPost2010PropOp55
 70
     1
102
RTVSPost2010Prop56
140
1.0
102
RTVSPost2010PropOp56
 70
     1
102
RTVSPost2010Prop57
140
1.0
102
RTVSPost2010PropOp57
 70
     1
  0
XRECORD
  5
A3CA3
102
{ACAD_REACTORS
330
A3CA2
102
}
330
A3CA2
100
AcDbXrecord
280
     1
102
RTVSPost2010Prop28
280
     0
102
RTVSPost2010PropOp28
 70
     1
102
RTVSPost2010Prop29
280
     1
102
RTVSPost2010PropOp29
 70
     1
102
RTVSPost2010Prop30
280
     1
102
RTVSPost2010PropOp30
 70
     1
102
RTVSPost2010Prop31
280
     0
102
RTVSPost2010PropOp31
 70
     1
102
RTVSPost2010Prop32
280
     0
102
RTVSPost2010PropOp32
 70
     1
102
RTVSPost2010Prop33
280
     0
102
RTVSPost2010PropOp33
 70
     1
102
RTVSPost2010Prop34
280
     0
102
RTVSPost2010PropOp34
 70
     1
102
RTVSPost2010Prop35
280
     0
102
RTVSPost2010PropOp35
 70
     1
102
RTVSPost2010Prop36
280
     0
102
RTVSPost2010PropOp36
 70
     1
102
RTVSPost2010Prop37
 90
       50
102
RTVSPost2010PropOp37
 70
     1
102
RTVSPost2010Prop38
140
0.0
102
RTVSPost2010PropOp38
 70
     1
102
RTVSPost2010Prop39
140
1.0
102
RTVSPost2010PropOp39
 70
     1
102
RTVSPost2010Prop40
 90
        0
102
RTVSPost2010PropOp40
 70
     1
102
RTVSPost2010Prop41ColorIndex
 90
       18
102
RTVSPost2010Prop41ColorRGB
 90
        0
102
RTVSPost2010PropOp41
 70
     1
102
RTVSPost2010Prop42
 90
       50
102
RTVSPost2010PropOp42
 70
     1
102
RTVSPost2010Prop43
 90
        3
102
RTVSPost2010PropOp43
 70
     1
102
RTVSPost2010Prop44ColorIndex
 90
        5
102
RTVSPost2010Prop44ColorRGB
 90
      255
102
RTVSPost2010PropOp44
 70
     1
102
RTVSPost2010Prop45
280
     0
102
RTVSPost2010PropOp45
 70
     1
102
RTVSPost2010Prop46
 90
       50
102
RTVSPost2010PropOp46
 70
     1
102
RTVSPost2010Prop47
 90
       50
102
RTVSPost2010PropOp47
 70
     1
102
RTVSPost2010Prop48
 90
       50
102
RTVSPost2010PropOp48
 70
     1
102
RTVSPost2010Prop49
280
     0
102
RTVSPost2010PropOp49
 70
     1
102
RTVSPost2010Prop50
 90
       50
102
RTVSPost2010PropOp50
 70
     1
102
RTVSPost2010Prop51ColorIndex
 90
      256
102
RTVSPost2010Prop51ColorRGB
 90
-16777216
102
RTVSPost2010PropOp51
 70
     0
102
RTVSPost2010Prop52
140
1.0
102
RTVSPost2010PropOp52
 70
     0
102
RTVSPost2010Prop53
 90
        2
102
RTVSPost2010PropOp53
 70
     1
102
RTVSPost2010Prop54
  1
strokes_ogs.tif
102
RTVSPost2010PropOp54
 70
     1
102
RTVSPost2010Prop55
280
     0
102
RTVSPost2010PropOp55
 70
     1
102
RTVSPost2010Prop56
140
1.0
102
RTVSPost2010PropOp56
 70
     1
102
RTVSPost2010Prop57
140
1.0
102
RTVSPost2010PropOp57
 70
     1
  0
XRECORD
  5
A3CAB
102
{ACAD_REACTORS
330
A3CAA
102
}
330
A3CAA
100
AcDbXrecord
280
     1
102
RTVSPost2010Prop28
280
     0
102
RTVSPost2010PropOp28
 70
     1
102
RTVSPost2010Prop29
280
     1
102
RTVSPost2010PropOp29
 70
     1
102
RTVSPost2010Prop30
280
     1
102
RTVSPost2010PropOp30
 70
     1
102
RTVSPost2010Prop31
280
     0
102
RTVSPost2010PropOp31
 70
     1
102
RTVSPost2010Prop32
280
     0
102
RTVSPost2010PropOp32
 70
     1
102
RTVSPost2010Prop33
280
     0
102
RTVSPost2010PropOp33
 70
     1
102
RTVSPost2010Prop34
280
     0
102
RTVSPost2010PropOp34
 70
     1
102
RTVSPost2010Prop35
280
     0
102
RTVSPost2010PropOp35
 70
     1
102
RTVSPost2010Prop36
280
     0
102
RTVSPost2010PropOp36
 70
     1
102
RTVSPost2010Prop37
 90
       50
102
RTVSPost2010PropOp37
 70
     1
102
RTVSPost2010Prop38
140
0.0
102
RTVSPost2010PropOp38
 70
     1
102
RTVSPost2010Prop39
140
1.0
102
RTVSPost2010PropOp39
 70
     1
102
RTVSPost2010Prop40
 90
        0
102
RTVSPost2010PropOp40
 70
     1
102
RTVSPost2010Prop41ColorIndex
 90
       18
102
RTVSPost2010Prop41ColorRGB
 90
        0
102
RTVSPost2010PropOp41
 70
     1
102
RTVSPost2010Prop42
 90
       50
102
RTVSPost2010PropOp42
 70
     1
102
RTVSPost2010Prop43
 90
        3
102
RTVSPost2010PropOp43
 70
     1
102
RTVSPost2010Prop44ColorIndex
 90
        5
102
RTVSPost2010Prop44ColorRGB
 90
      255
102
RTVSPost2010PropOp44
 70
     1
102
RTVSPost2010Prop45
280
     0
102
RTVSPost2010PropOp45
 70
     1
102
RTVSPost2010Prop46
 90
       50
102
RTVSPost2010PropOp46
 70
     1
102
RTVSPost2010Prop47
 90
       50
102
RTVSPost2010PropOp47
 70
     1
102
RTVSPost2010Prop48
 90
       50
102
RTVSPost2010PropOp48
 70
     1
102
RTVSPost2010Prop49
280
     0
102
RTVSPost2010PropOp49
 70
     1
102
RTVSPost2010Prop50
 90
       50
102
RTVSPost2010PropOp50
 70
     1
102
RTVSPost2010Prop51ColorIndex
 90
      256
102
RTVSPost2010Prop51ColorRGB
 90
-16777216
102
RTVSPost2010PropOp51
 70
     0
102
RTVSPost2010Prop52
140
1.0
102
RTVSPost2010PropOp52
 70
     0
102
RTVSPost2010Prop53
 90
        2
102
RTVSPost2010PropOp53
 70
     1
102
RTVSPost2010Prop54
  1
strokes_ogs.tif
102
RTVSPost2010PropOp54
 70
     1
102
RTVSPost2010Prop55
280
     0
102
RTVSPost2010PropOp55
 70
     1
102
RTVSPost2010Prop56
140
1.0
102
RTVSPost2010PropOp56
 70
     1
102
RTVSPost2010Prop57
140
1.0
102
RTVSPost2010PropOp57
 70
     1
  0
XRECORD
  5
A3C9B
102
{ACAD_REACTORS
330
A3C9A
102
}
330
A3C9A
100
AcDbXrecord
280
     1
102
RTVSPost2010Prop28
280
     0
102
RTVSPost2010PropOp28
 70
     1
102
RTVSPost2010Prop29
280
     1
102
RTVSPost2010PropOp29
 70
     1
102
RTVSPost2010Prop30
280
     1
102
RTVSPost2010PropOp30
 70
     1
102
RTVSPost2010Prop31
280
     0
102
RTVSPost2010PropOp31
 70
     1
102
RTVSPost2010Prop32
280
     0
102
RTVSPost2010PropOp32
 70
     1
102
RTVSPost2010Prop33
280
     0
102
RTVSPost2010PropOp33
 70
     1
102
RTVSPost2010Prop34
280
     0
102
RTVSPost2010PropOp34
 70
     1
102
RTVSPost2010Prop35
280
     0
102
RTVSPost2010PropOp35
 70
     1
102
RTVSPost2010Prop36
280
     0
102
RTVSPost2010PropOp36
 70
     1
102
RTVSPost2010Prop37
 90
       50
102
RTVSPost2010PropOp37
 70
     1
102
RTVSPost2010Prop38
140
0.0
102
RTVSPost2010PropOp38
 70
     1
102
RTVSPost2010Prop39
140
1.0
102
RTVSPost2010PropOp39
 70
     1
102
RTVSPost2010Prop40
 90
        0
102
RTVSPost2010PropOp40
 70
     1
102
RTVSPost2010Prop41ColorIndex
 90
       18
102
RTVSPost2010Prop41ColorRGB
 90
        0
102
RTVSPost2010PropOp41
 70
     1
102
RTVSPost2010Prop42
 90
       50
102
RTVSPost2010PropOp42
 70
     1
102
RTVSPost2010Prop43
 90
        3
102
RTVSPost2010PropOp43
 70
     1
102
RTVSPost2010Prop44ColorIndex
 90
        5
102
RTVSPost2010Prop44ColorRGB
 90
      255
102
RTVSPost2010PropOp44
 70
     1
102
RTVSPost2010Prop45
280
     0
102
RTVSPost2010PropOp45
 70
     1
102
RTVSPost2010Prop46
 90
       50
102
RTVSPost2010PropOp46
 70
     1
102
RTVSPost2010Prop47
 90
       50
102
RTVSPost2010PropOp47
 70
     1
102
RTVSPost2010Prop48
 90
       50
102
RTVSPost2010PropOp48
 70
     1
102
RTVSPost2010Prop49
280
     0
102
RTVSPost2010PropOp49
 70
     1
102
RTVSPost2010Prop50
 90
       50
102
RTVSPost2010PropOp50
 70
     1
102
RTVSPost2010Prop51ColorIndex
 90
      256
102
RTVSPost2010Prop51ColorRGB
 90
-16777216
102
RTVSPost2010PropOp51
 70
     0
102
RTVSPost2010Prop52
140
1.0
102
RTVSPost2010PropOp52
 70
     0
102
RTVSPost2010Prop53
 90
        2
102
RTVSPost2010PropOp53
 70
     1
102
RTVSPost2010Prop54
  1
strokes_ogs.tif
102
RTVSPost2010PropOp54
 70
     1
102
RTVSPost2010Prop55
280
     0
102
RTVSPost2010PropOp55
 70
     1
102
RTVSPost2010Prop56
140
1.0
102
RTVSPost2010PropOp56
 70
     1
102
RTVSPost2010Prop57
140
1.0
102
RTVSPost2010PropOp57
 70
     1
  0
XRECORD
  5
A3CBB
102
{ACAD_REACTORS
330
A3CBA
102
}
330
A3CBA
100
AcDbXrecord
280
     1
102
RTVSPost2010Prop28
280
     0
102
RTVSPost2010PropOp28
 70
     1
102
RTVSPost2010Prop29
280
     1
102
RTVSPost2010PropOp29
 70
     1
102
RTVSPost2010Prop30
280
     1
102
RTVSPost2010PropOp30
 70
     1
102
RTVSPost2010Prop31
280
     0
102
RTVSPost2010PropOp31
 70
     1
102
RTVSPost2010Prop32
280
     0
102
RTVSPost2010PropOp32
 70
     1
102
RTVSPost2010Prop33
280
     0
102
RTVSPost2010PropOp33
 70
     1
102
RTVSPost2010Prop34
280
     0
102
RTVSPost2010PropOp34
 70
     1
102
RTVSPost2010Prop35
280
     0
102
RTVSPost2010PropOp35
 70
     1
102
RTVSPost2010Prop36
280
     0
102
RTVSPost2010PropOp36
 70
     1
102
RTVSPost2010Prop37
 90
       50
102
RTVSPost2010PropOp37
 70
     1
102
RTVSPost2010Prop38
140
0.0
102
RTVSPost2010PropOp38
 70
     1
102
RTVSPost2010Prop39
140
1.0
102
RTVSPost2010PropOp39
 70
     1
102
RTVSPost2010Prop40
 90
        0
102
RTVSPost2010PropOp40
 70
     1
102
RTVSPost2010Prop41ColorIndex
 90
       18
102
RTVSPost2010Prop41ColorRGB
 90
        0
102
RTVSPost2010PropOp41
 70
     1
102
RTVSPost2010Prop42
 90
       50
102
RTVSPost2010PropOp42
 70
     1
102
RTVSPost2010Prop43
 90
        3
102
RTVSPost2010PropOp43
 70
     1
102
RTVSPost2010Prop44ColorIndex
 90
        5
102
RTVSPost2010Prop44ColorRGB
 90
      255
102
RTVSPost2010PropOp44
 70
     1
102
RTVSPost2010Prop45
280
     0
102
RTVSPost2010PropOp45
 70
     1
102
RTVSPost2010Prop46
 90
       50
102
RTVSPost2010PropOp46
 70
     1
102
RTVSPost2010Prop47
 90
       50
102
RTVSPost2010PropOp47
 70
     1
102
RTVSPost2010Prop48
 90
       50
102
RTVSPost2010PropOp48
 70
     1
102
RTVSPost2010Prop49
280
     0
102
RTVSPost2010PropOp49
 70
     1
102
RTVSPost2010Prop50
 90
       50
102
RTVSPost2010PropOp50
 70
     1
102
RTVSPost2010Prop51ColorIndex
 90
      256
102
RTVSPost2010Prop51ColorRGB
 90
-16777216
102
RTVSPost2010PropOp51
 70
     0
102
RTVSPost2010Prop52
140
1.0
102
RTVSPost2010PropOp52
 70
     0
102
RTVSPost2010Prop53
 90
        2
102
RTVSPost2010PropOp53
 70
     1
102
RTVSPost2010Prop54
  1
strokes_ogs.tif
102
RTVSPost2010PropOp54
 70
     1
102
RTVSPost2010Prop55
280
     0
102
RTVSPost2010PropOp55
 70
     1
102
RTVSPost2010Prop56
140
1.0
102
RTVSPost2010PropOp56
 70
     1
102
RTVSPost2010Prop57
140
1.0
102
RTVSPost2010PropOp57
 70
     1
  0
XRECORD
  5
A3CB9
102
{ACAD_REACTORS
330
A3CB8
102
}
330
A3CB8
100
AcDbXrecord
280
     1
102
RTVSPost2010Prop28
280
     0
102
RTVSPost2010PropOp28
 70
     1
102
RTVSPost2010Prop29
280
     1
102
RTVSPost2010PropOp29
 70
     1
102
RTVSPost2010Prop30
280
     1
102
RTVSPost2010PropOp30
 70
     1
102
RTVSPost2010Prop31
280
     0
102
RTVSPost2010PropOp31
 70
     1
102
RTVSPost2010Prop32
280
     0
102
RTVSPost2010PropOp32
 70
     1
102
RTVSPost2010Prop33
280
     0
102
RTVSPost2010PropOp33
 70
     1
102
RTVSPost2010Prop34
280
     0
102
RTVSPost2010PropOp34
 70
     1
102
RTVSPost2010Prop35
280
     0
102
RTVSPost2010PropOp35
 70
     1
102
RTVSPost2010Prop36
280
     0
102
RTVSPost2010PropOp36
 70
     1
102
RTVSPost2010Prop37
 90
       50
102
RTVSPost2010PropOp37
 70
     1
102
RTVSPost2010Prop38
140
0.0
102
RTVSPost2010PropOp38
 70
     1
102
RTVSPost2010Prop39
140
1.0
102
RTVSPost2010PropOp39
 70
     1
102
RTVSPost2010Prop40
 90
        0
102
RTVSPost2010PropOp40
 70
     1
102
RTVSPost2010Prop41ColorIndex
 90
       18
102
RTVSPost2010Prop41ColorRGB
 90
        0
102
RTVSPost2010PropOp41
 70
     1
102
RTVSPost2010Prop42
 90
       50
102
RTVSPost2010PropOp42
 70
     1
102
RTVSPost2010Prop43
 90
        3
102
RTVSPost2010PropOp43
 70
     1
102
RTVSPost2010Prop44ColorIndex
 90
        5
102
RTVSPost2010Prop44ColorRGB
 90
      255
102
RTVSPost2010PropOp44
 70
     1
102
RTVSPost2010Prop45
280
     0
102
RTVSPost2010PropOp45
 70
     1
102
RTVSPost2010Prop46
 90
       50
102
RTVSPost2010PropOp46
 70
     1
102
RTVSPost2010Prop47
 90
       50
102
RTVSPost2010PropOp47
 70
     1
102
RTVSPost2010Prop48
 90
       50
102
RTVSPost2010PropOp48
 70
     1
102
RTVSPost2010Prop49
280
     0
102
RTVSPost2010PropOp49
 70
     1
102
RTVSPost2010Prop50
 90
       50
102
RTVSPost2010PropOp50
 70
     1
102
RTVSPost2010Prop51ColorIndex
 90
      256
102
RTVSPost2010Prop51ColorRGB
 90
-16777216
102
RTVSPost2010PropOp51
 70
     0
102
RTVSPost2010Prop52
140
1.0
102
RTVSPost2010PropOp52
 70
     0
102
RTVSPost2010Prop53
 90
        2
102
RTVSPost2010PropOp53
 70
     1
102
RTVSPost2010Prop54
  1
strokes_ogs.tif
102
RTVSPost2010PropOp54
 70
     1
102
RTVSPost2010Prop55
280
     0
102
RTVSPost2010PropOp55
 70
     1
102
RTVSPost2010Prop56
140
1.0
102
RTVSPost2010PropOp56
 70
     1
102
RTVSPost2010Prop57
140
1.0
102
RTVSPost2010PropOp57
 70
     1
  0
XRECORD
  5
A3CB3
102
{ACAD_REACTORS
330
A3CB2
102
}
330
A3CB2
100
AcDbXrecord
280
     1
102
RTVSPost2010Prop28
280
     0
102
RTVSPost2010PropOp28
 70
     1
102
RTVSPost2010Prop29
280
     1
102
RTVSPost2010PropOp29
 70
     1
102
RTVSPost2010Prop30
280
     1
102
RTVSPost2010PropOp30
 70
     1
102
RTVSPost2010Prop31
280
     0
102
RTVSPost2010PropOp31
 70
     1
102
RTVSPost2010Prop32
280
     0
102
RTVSPost2010PropOp32
 70
     1
102
RTVSPost2010Prop33
280
     0
102
RTVSPost2010PropOp33
 70
     1
102
RTVSPost2010Prop34
280
     0
102
RTVSPost2010PropOp34
 70
     1
102
RTVSPost2010Prop35
280
     0
102
RTVSPost2010PropOp35
 70
     1
102
RTVSPost2010Prop36
280
     0
102
RTVSPost2010PropOp36
 70
     1
102
RTVSPost2010Prop37
 90
       50
102
RTVSPost2010PropOp37
 70
     1
102
RTVSPost2010Prop38
140
0.0
102
RTVSPost2010PropOp38
 70
     1
102
RTVSPost2010Prop39
140
1.0
102
RTVSPost2010PropOp39
 70
     1
102
RTVSPost2010Prop40
 90
        0
102
RTVSPost2010PropOp40
 70
     1
102
RTVSPost2010Prop41ColorIndex
 90
       18
102
RTVSPost2010Prop41ColorRGB
 90
        0
102
RTVSPost2010PropOp41
 70
     1
102
RTVSPost2010Prop42
 90
       50
102
RTVSPost2010PropOp42
 70
     1
102
RTVSPost2010Prop43
 90
        3
102
RTVSPost2010PropOp43
 70
     1
102
RTVSPost2010Prop44ColorIndex
 90
        5
102
RTVSPost2010Prop44ColorRGB
 90
      255
102
RTVSPost2010PropOp44
 70
     1
102
RTVSPost2010Prop45
280
     0
102
RTVSPost2010PropOp45
 70
     1
102
RTVSPost2010Prop46
 90
       50
102
RTVSPost2010PropOp46
 70
     1
102
RTVSPost2010Prop47
 90
       50
102
RTVSPost2010PropOp47
 70
     1
102
RTVSPost2010Prop48
 90
       50
102
RTVSPost2010PropOp48
 70
     1
102
RTVSPost2010Prop49
280
     0
102
RTVSPost2010PropOp49
 70
     1
102
RTVSPost2010Prop50
 90
       50
102
RTVSPost2010PropOp50
 70
     1
102
RTVSPost2010Prop51ColorIndex
 90
      256
102
RTVSPost2010Prop51ColorRGB
 90
-16777216
102
RTVSPost2010PropOp51
 70
     0
102
RTVSPost2010Prop52
140
1.0
102
RTVSPost2010PropOp52
 70
     0
102
RTVSPost2010Prop53
 90
        2
102
RTVSPost2010PropOp53
 70
     1
102
RTVSPost2010Prop54
  1
strokes_ogs.tif
102
RTVSPost2010PropOp54
 70
     1
102
RTVSPost2010Prop55
280
     0
102
RTVSPost2010PropOp55
 70
     1
102
RTVSPost2010Prop56
140
1.0
102
RTVSPost2010PropOp56
 70
     1
102
RTVSPost2010Prop57
140
1.0
102
RTVSPost2010PropOp57
 70
     1
  0
XRECORD
  5
A3CB5
102
{ACAD_REACTORS
330
A3CB4
102
}
330
A3CB4
100
AcDbXrecord
280
     1
102
RTVSPost2010Prop28
280
     0
102
RTVSPost2010PropOp28
 70
     1
102
RTVSPost2010Prop29
280
     1
102
RTVSPost2010PropOp29
 70
     1
102
RTVSPost2010Prop30
280
     1
102
RTVSPost2010PropOp30
 70
     1
102
RTVSPost2010Prop31
280
     0
102
RTVSPost2010PropOp31
 70
     1
102
RTVSPost2010Prop32
280
     0
102
RTVSPost2010PropOp32
 70
     1
102
RTVSPost2010Prop33
280
     0
102
RTVSPost2010PropOp33
 70
     1
102
RTVSPost2010Prop34
280
     0
102
RTVSPost2010PropOp34
 70
     1
102
RTVSPost2010Prop35
280
     0
102
RTVSPost2010PropOp35
 70
     1
102
RTVSPost2010Prop36
280
     0
102
RTVSPost2010PropOp36
 70
     1
102
RTVSPost2010Prop37
 90
       50
102
RTVSPost2010PropOp37
 70
     1
102
RTVSPost2010Prop38
140
0.0
102
RTVSPost2010PropOp38
 70
     1
102
RTVSPost2010Prop39
140
1.0
102
RTVSPost2010PropOp39
 70
     1
102
RTVSPost2010Prop40
 90
        0
102
RTVSPost2010PropOp40
 70
     1
102
RTVSPost2010Prop41ColorIndex
 90
       18
102
RTVSPost2010Prop41ColorRGB
 90
        0
102
RTVSPost2010PropOp41
 70
     1
102
RTVSPost2010Prop42
 90
       50
102
RTVSPost2010PropOp42
 70
     1
102
RTVSPost2010Prop43
 90
        3
102
RTVSPost2010PropOp43
 70
     1
102
RTVSPost2010Prop44ColorIndex
 90
        5
102
RTVSPost2010Prop44ColorRGB
 90
      255
102
RTVSPost2010PropOp44
 70
     1
102
RTVSPost2010Prop45
280
     0
102
RTVSPost2010PropOp45
 70
     1
102
RTVSPost2010Prop46
 90
       50
102
RTVSPost2010PropOp46
 70
     1
102
RTVSPost2010Prop47
 90
       50
102
RTVSPost2010PropOp47
 70
     1
102
RTVSPost2010Prop48
 90
       50
102
RTVSPost2010PropOp48
 70
     1
102
RTVSPost2010Prop49
280
     0
102
RTVSPost2010PropOp49
 70
     1
102
RTVSPost2010Prop50
 90
       50
102
RTVSPost2010PropOp50
 70
     1
102
RTVSPost2010Prop51ColorIndex
 90
      256
102
RTVSPost2010Prop51ColorRGB
 90
-16777216
102
RTVSPost2010PropOp51
 70
     0
102
RTVSPost2010Prop52
140
1.0
102
RTVSPost2010PropOp52
 70
     0
102
RTVSPost2010Prop53
 90
        2
102
RTVSPost2010PropOp53
 70
     1
102
RTVSPost2010Prop54
  1
strokes_ogs.tif
102
RTVSPost2010PropOp54
 70
     1
102
RTVSPost2010Prop55
280
     0
102
RTVSPost2010PropOp55
 70
     1
102
RTVSPost2010Prop56
140
1.0
102
RTVSPost2010PropOp56
 70
     1
102
RTVSPost2010Prop57
140
1.0
102
RTVSPost2010PropOp57
 70
     1
  0
XRECORD
  5
A3CA1
102
{ACAD_REACTORS
330
A3CA0
102
}
330
A3CA0
100
AcDbXrecord
280
     1
102
RTVSPost2010Prop28
280
     0
102
RTVSPost2010PropOp28
 70
     1
102
RTVSPost2010Prop29
280
     1
102
RTVSPost2010PropOp29
 70
     1
102
RTVSPost2010Prop30
280
     1
102
RTVSPost2010PropOp30
 70
     1
102
RTVSPost2010Prop31
280
     0
102
RTVSPost2010PropOp31
 70
     1
102
RTVSPost2010Prop32
280
     0
102
RTVSPost2010PropOp32
 70
     1
102
RTVSPost2010Prop33
280
     0
102
RTVSPost2010PropOp33
 70
     1
102
RTVSPost2010Prop34
280
     0
102
RTVSPost2010PropOp34
 70
     1
102
RTVSPost2010Prop35
280
     0
102
RTVSPost2010PropOp35
 70
     1
102
RTVSPost2010Prop36
280
     0
102
RTVSPost2010PropOp36
 70
     1
102
RTVSPost2010Prop37
 90
       50
102
RTVSPost2010PropOp37
 70
     1
102
RTVSPost2010Prop38
140
0.0
102
RTVSPost2010PropOp38
 70
     1
102
RTVSPost2010Prop39
140
1.0
102
RTVSPost2010PropOp39
 70
     1
102
RTVSPost2010Prop40
 90
        0
102
RTVSPost2010PropOp40
 70
     1
102
RTVSPost2010Prop41ColorIndex
 90
       18
102
RTVSPost2010Prop41ColorRGB
 90
        0
102
RTVSPost2010PropOp41
 70
     1
102
RTVSPost2010Prop42
 90
       50
102
RTVSPost2010PropOp42
 70
     1
102
RTVSPost2010Prop43
 90
        3
102
RTVSPost2010PropOp43
 70
     1
102
RTVSPost2010Prop44ColorIndex
 90
        5
102
RTVSPost2010Prop44ColorRGB
 90
      255
102
RTVSPost2010PropOp44
 70
     1
102
RTVSPost2010Prop45
280
     0
102
RTVSPost2010PropOp45
 70
     1
102
RTVSPost2010Prop46
 90
       50
102
RTVSPost2010PropOp46
 70
     1
102
RTVSPost2010Prop47
 90
       50
102
RTVSPost2010PropOp47
 70
     1
102
RTVSPost2010Prop48
 90
       50
102
RTVSPost2010PropOp48
 70
     1
102
RTVSPost2010Prop49
280
     0
102
RTVSPost2010PropOp49
 70
     1
102
RTVSPost2010Prop50
 90
       50
102
RTVSPost2010PropOp50
 70
     1
102
RTVSPost2010Prop51ColorIndex
 90
      256
102
RTVSPost2010Prop51ColorRGB
 90
-16777216
102
RTVSPost2010PropOp51
 70
     0
102
RTVSPost2010Prop52
140
1.0
102
RTVSPost2010PropOp52
 70
     0
102
RTVSPost2010Prop53
 90
        2
102
RTVSPost2010PropOp53
 70
     1
102
RTVSPost2010Prop54
  1
strokes_ogs.tif
102
RTVSPost2010PropOp54
 70
     1
102
RTVSPost2010Prop55
280
     0
102
RTVSPost2010PropOp55
 70
     1
102
RTVSPost2010Prop56
140
1.0
102
RTVSPost2010PropOp56
 70
     1
102
RTVSPost2010Prop57
140
1.0
102
RTVSPost2010PropOp57
 70
     1
  0
XRECORD
  5
A3CAF
102
{ACAD_REACTORS
330
A3CAE
102
}
330
A3CAE
100
AcDbXrecord
280
     1
102
RTVSPost2010Prop28
280
     0
102
RTVSPost2010PropOp28
 70
     1
102
RTVSPost2010Prop29
280
     1
102
RTVSPost2010PropOp29
 70
     1
102
RTVSPost2010Prop30
280
     1
102
RTVSPost2010PropOp30
 70
     1
102
RTVSPost2010Prop31
280
     0
102
RTVSPost2010PropOp31
 70
     1
102
RTVSPost2010Prop32
280
     0
102
RTVSPost2010PropOp32
 70
     1
102
RTVSPost2010Prop33
280
     0
102
RTVSPost2010PropOp33
 70
     1
102
RTVSPost2010Prop34
280
     0
102
RTVSPost2010PropOp34
 70
     1
102
RTVSPost2010Prop35
280
     0
102
RTVSPost2010PropOp35
 70
     1
102
RTVSPost2010Prop36
280
     0
102
RTVSPost2010PropOp36
 70
     1
102
RTVSPost2010Prop37
 90
       50
102
RTVSPost2010PropOp37
 70
     1
102
RTVSPost2010Prop38
140
0.0
102
RTVSPost2010PropOp38
 70
     1
102
RTVSPost2010Prop39
140
1.0
102
RTVSPost2010PropOp39
 70
     1
102
RTVSPost2010Prop40
 90
        0
102
RTVSPost2010PropOp40
 70
     1
102
RTVSPost2010Prop41ColorIndex
 90
       18
102
RTVSPost2010Prop41ColorRGB
 90
        0
102
RTVSPost2010PropOp41
 70
     1
102
RTVSPost2010Prop42
 90
       50
102
RTVSPost2010PropOp42
 70
     1
102
RTVSPost2010Prop43
 90
        3
102
RTVSPost2010PropOp43
 70
     1
102
RTVSPost2010Prop44ColorIndex
 90
        5
102
RTVSPost2010Prop44ColorRGB
 90
      255
102
RTVSPost2010PropOp44
 70
     1
102
RTVSPost2010Prop45
280
     0
102
RTVSPost2010PropOp45
 70
     1
102
RTVSPost2010Prop46
 90
       50
102
RTVSPost2010PropOp46
 70
     1
102
RTVSPost2010Prop47
 90
       50
102
RTVSPost2010PropOp47
 70
     1
102
RTVSPost2010Prop48
 90
       50
102
RTVSPost2010PropOp48
 70
     1
102
RTVSPost2010Prop49
280
     0
102
RTVSPost2010PropOp49
 70
     1
102
RTVSPost2010Prop50
 90
       50
102
RTVSPost2010PropOp50
 70
     1
102
RTVSPost2010Prop51ColorIndex
 90
      256
102
RTVSPost2010Prop51ColorRGB
 90
-16777216
102
RTVSPost2010PropOp51
 70
     0
102
RTVSPost2010Prop52
140
1.0
102
RTVSPost2010PropOp52
 70
     0
102
RTVSPost2010Prop53
 90
        2
102
RTVSPost2010PropOp53
 70
     1
102
RTVSPost2010Prop54
  1
strokes_ogs.tif
102
RTVSPost2010PropOp54
 70
     1
102
RTVSPost2010Prop55
280
     0
102
RTVSPost2010PropOp55
 70
     1
102
RTVSPost2010Prop56
140
1.0
102
RTVSPost2010PropOp56
 70
     1
102
RTVSPost2010Prop57
140
1.0
102
RTVSPost2010PropOp57
 70
     1
  0
XRECORD
  5
A3CB7
102
{ACAD_REACTORS
330
A3CB6
102
}
330
A3CB6
100
AcDbXrecord
280
     1
102
RTVSPost2010Prop28
280
     0
102
RTVSPost2010PropOp28
 70
     1
102
RTVSPost2010Prop29
280
     1
102
RTVSPost2010PropOp29
 70
     1
102
RTVSPost2010Prop30
280
     1
102
RTVSPost2010PropOp30
 70
     1
102
RTVSPost2010Prop31
280
     0
102
RTVSPost2010PropOp31
 70
     1
102
RTVSPost2010Prop32
280
     0
102
RTVSPost2010PropOp32
 70
     1
102
RTVSPost2010Prop33
280
     0
102
RTVSPost2010PropOp33
 70
     1
102
RTVSPost2010Prop34
280
     0
102
RTVSPost2010PropOp34
 70
     1
102
RTVSPost2010Prop35
280
     0
102
RTVSPost2010PropOp35
 70
     1
102
RTVSPost2010Prop36
280
     0
102
RTVSPost2010PropOp36
 70
     1
102
RTVSPost2010Prop37
 90
       50
102
RTVSPost2010PropOp37
 70
     1
102
RTVSPost2010Prop38
140
0.0
102
RTVSPost2010PropOp38
 70
     1
102
RTVSPost2010Prop39
140
1.0
102
RTVSPost2010PropOp39
 70
     1
102
RTVSPost2010Prop40
 90
        0
102
RTVSPost2010PropOp40
 70
     1
102
RTVSPost2010Prop41ColorIndex
 90
       18
102
RTVSPost2010Prop41ColorRGB
 90
        0
102
RTVSPost2010PropOp41
 70
     1
102
RTVSPost2010Prop42
 90
       50
102
RTVSPost2010PropOp42
 70
     1
102
RTVSPost2010Prop43
 90
        3
102
RTVSPost2010PropOp43
 70
     1
102
RTVSPost2010Prop44ColorIndex
 90
        5
102
RTVSPost2010Prop44ColorRGB
 90
      255
102
RTVSPost2010PropOp44
 70
     1
102
RTVSPost2010Prop45
280
     0
102
RTVSPost2010PropOp45
 70
     1
102
RTVSPost2010Prop46
 90
       50
102
RTVSPost2010PropOp46
 70
     1
102
RTVSPost2010Prop47
 90
       50
102
RTVSPost2010PropOp47
 70
     1
102
RTVSPost2010Prop48
 90
       50
102
RTVSPost2010PropOp48
 70
     1
102
RTVSPost2010Prop49
280
     0
102
RTVSPost2010PropOp49
 70
     1
102
RTVSPost2010Prop50
 90
       50
102
RTVSPost2010PropOp50
 70
     1
102
RTVSPost2010Prop51ColorIndex
 90
      256
102
RTVSPost2010Prop51ColorRGB
 90
-16777216
102
RTVSPost2010PropOp51
 70
     0
102
RTVSPost2010Prop52
140
1.0
102
RTVSPost2010PropOp52
 70
     0
102
RTVSPost2010Prop53
 90
        2
102
RTVSPost2010PropOp53
 70
     1
102
RTVSPost2010Prop54
  1
strokes_ogs.tif
102
RTVSPost2010PropOp54
 70
     1
102
RTVSPost2010Prop55
280
     0
102
RTVSPost2010PropOp55
 70
     1
102
RTVSPost2010Prop56
140
1.0
102
RTVSPost2010PropOp56
 70
     1
102
RTVSPost2010Prop57
140
1.0
102
RTVSPost2010PropOp57
 70
     1
  0
ENDSEC
  0
EOF
